новый адрес пиратбит piratbit
Мега распродажа FORZA HORIZON 4 ULTIMATE+ВСЕ DLC+ОНЛАЙН всего за 499р. 349 руб. (супер цена). Внимание количество ограничено!!!

iTunes

1+1

iTunes

мы

iTunes

1

iTunes

Чернобыль

iTunes

Ральф против интернета

Лицензия

ПШазам

Лицензия

Игра престолов

Лицензия

30
pack

ВАЖНО

!!Акция!!

Alien_RageХит недели

RePack

Resident Evil 21

ИГРА 18+

pack

RePack

Metro:Exodus

!!Акция!!

Alien_Rage

RePack

fifa19

RePack

Assassins Creed: Odyssey

RePack

NEED FOR SPEED™ PAYBACK

3 сезон

9 сезон

Бесстыжие 9 сезон

Все сериалы

все сериалы на PB.wtf

RePack

FAR CRY 5
Ребята, катастрофически не хватает 1900р. для оплаты серверов за Октябрь (всвязи с блокировками трафик упал в 3 раза), 1-2р., выручайте.
  

Большой собачий побег / Ozzy (Alberto Rodríguez, Начо Ла Каза ) [2016, мультфильм, комедия, приключения, BDRip 720p от potroks] Dub [Лицензия] pb.wtf

Большой собачий побег через торрент pb.wtf

Раздают: 1 [ 0 KB/s ]
Размер: 4.37 GB | Добавлен: 2 года 1 мес. назад | Торрент скачан:341 раз
Скачать  

04-10-2017 07:48 Большой собачий побег Скачать торрент  

Большой собачий побег / Ozzy

Год выпуска: 2016
Страна: Канада, Испания / Arcadia Motion Pictures, Capitan Arana....
Жанр: мультфильм, комедия, приключения, семейный
Продолжительность: 01:30:44
Перевод: Дубляж [Blu-ray RUS]
Субтитры: английские
Навигация по главам: есть

Режиссер: Alberto Rodríguez, Начо Ла Каза
В ролях:

Гильермо Ромеро (Ozzy, озвучка), Дэни Ровира (Fronky, озвучка), Хосе Мота (Vito, озвучка), Мишель Хеннер (Paula, озвучка), Карлос Аресес (Mr. Robbins, озвучка), Фернандо Техеро (Radar, озвучка), Luis Bajo (Chester, озвучка), Эктор Кантолья (Grunt, озвучка), Хуан Фернандес (Decker, озвучка), Эльза Патаки (Maddie, озвучка), Пабло Эспиноса (Mike, озвучка), Селу Ниэто (Dominic, озвучка)

Описание: Жизнь беспечного бигля Оззи переворачивается с лап на голову, когда, отправляясь в отпуск, семья Мартинов отдает его в элитный спа-отель для собак. Но хозяева не могли и представить, что это всего лишь ловушка, а их любимец окажется в настоящей собачьей тюрьме. Чтобы прорваться через супер-систему охраны и злющих сторожевых псов, Оззи вместе с такими же бедолагами, как он, должен будет спланировать самый хитроумный и дерзкий побег в истории.



Качество: BDRip 720p
Формат: MKV
Видео: AVC, 1280x720 (16:9), 5620 kbps, 24 fps, 0,254 bpp
Аудио №1: AC3 / 5.1 / 48 kHz / 640 kbps | RUS
Аудио №2: AC3 / 5.1 / 48 kHz / 640 kbps | ENG
General
Unique ID : 249095104832694079134171572245619301234 (0xBB65F8DE26AC885ABB4D46BA292C5B72)
Complete name : I:\Мультфильмы\Bolshoy.Sobachiy.Pobeg.2016.DUAL.BDRip.720p.-HELLYWOOD.mkv
Format : Matroska
Format version : Version 4 / Version 2
File size : 4.37 GiB
Duration : 1 h 30 min
Overall bit rate : 6 900 kb/s
Movie name : Ozzy (2016)
Encoded date : UTC 2017-10-04 07:10:45
Writing application : mkvmerge v5.9.0 ('On The Loose') built on Dec 15 2012 16:39:58
Writing library : libebml v1.3.0 + libmatroska v1.4.0

Video
ID : 1
Format : AVC
Format/Info : Advanced Video Codec
Format profile : High@L4.1
Format settings, CABAC : Yes
Format settings, ReFrames : 9 frames
Codec ID : V_MPEG4/ISO/AVC
Duration : 1 h 30 min
Bit rate : 5 620 kb/s
Width : 1 280 pixels
Height : 720 pixels
Display aspect ratio : 16:9
Frame rate mode : Constant
Frame rate : 24.000 FPS
Color space : YUV
Chroma subsampling : 4:2:0
Bit depth : 8 bits
Scan type : Progressive
Bits/(Pixel*Frame) : 0.254
Stream size : 3.47 GiB (79%)
Title : potroks
Writing library : x264 core 152 r2851M ba24899
Encoding settings : cabac=1 / ref=9 / deblock=1:0:0 / analyse=0x3:0x133 / me=umh / subme=11 / psy=1 / psy_rd=1.00:0.10 / mixed_ref=1 / me_range=48 / chroma_me=1 / trellis=2 / 8x8dct=1 / cqm=0 / deadzone=21,11 / fast_pskip=0 / chroma_qp_offset=-3 / threads=9 / lookahead_threads=2 / sliced_threads=0 / nr=0 / decimate=0 / interlaced=0 / bluray_compat=0 / constrained_intra=0 / bframes=11 / b_pyramid=2 / b_adapt=2 / b_bias=0 / direct=3 / weightb=1 / open_gop=0 / weightp=2 / keyint=240 / keyint_min=23 / scenecut=40 / intra_refresh=0 / rc_lookahead=0 / rc=2pass / mbtree=0 / bitrate=5620 / ratetol=1.0 / qcomp=0.70 / qpmin=0 / qpmax=69 / qpstep=4 / cplxblur=20.0 / qblur=0.5 / vbv_maxrate=62500 / vbv_bufsize=44642 / nal_hrd=none / filler=0 / ip_ratio=1.40 / pb_ratio=1.30 / aq=1:0.70
Language : English
Default : Yes
Forced : No

Audio #1
ID : 2
Format : AC-3
Format/Info : Audio Coding 3
Mode extension : CM (complete main)
Format settings, Endianness : Big
Codec ID : A_AC3
Duration : 1 h 30 min
Bit rate mode : Constant
Bit rate : 640 kb/s
Channel(s) : 6 channels
Channel positions : Front: L C R, Side: L R, LFE
Sampling rate : 48.0 kHz
Frame rate : 31.250 FPS (1536 spf)
Compression mode : Lossy
Stream size : 415 MiB (9%)
Title : Dub | DD 5.1 @ 640 kbps - Blu-ray RUS
Language : Russian
Default : Yes
Forced : No

Audio #2
ID : 3
Format : AC-3
Format/Info : Audio Coding 3
Mode extension : CM (complete main)
Format settings, Endianness : Big
Codec ID : A_AC3
Duration : 1 h 30 min
Bit rate mode : Constant
Bit rate : 640 kb/s
Channel(s) : 6 channels
Channel positions : Front: L C R, Side: L R, LFE
Sampling rate : 48.0 kHz
Frame rate : 31.250 FPS (1536 spf)
Compression mode : Lossy
Stream size : 415 MiB (9%)
Title : Original | DD 5.1 @ 640 kbps
Language : English
Default : No
Forced : No

Text
ID : 4
Format : UTF-8
Codec ID : S_TEXT/UTF8
Codec ID/Info : UTF-8 Plain Text
Language : English
Default : No
Forced : No

Menu
00:00:00.000 : en:(01)00:00:00:000
00:00:40.666 : en:(02)00:00:40:666
00:09:41.125 : en:(03)00:09:41:125
00:22:08.000 : en:(04)00:22:08:000
00:32:50.458 : en:(05)00:32:50:458
00:44:08.541 : en:(06)00:44:08:541
00:58:01.791 : en:(07)00:58:01:791
01:08:12.000 : en:(08)01:08:12:000
01:19:27.041 : en:(09)01:19:27:041
pb.wtf



Скачать Большой собачий побег через торрент http://i2.imageban.ru/out/2017/10/04/51a5b5ba87323b60a5ce1115da0fb13f.png Скачать фильм Большой собачий побег через торрент бесплантно в хорошем качестве Описание: Жизнь беспечного бигля Оззи переворачивается с лап на голову, когда, отправляясь в отпуск, семья Мартинов отдает его в элитный ... 10 10 10
Info! Золотая раздача, скачанное не засчитывается.
Торрент: Зарегистрирован [2017-10-04 07:48] · скачан: 341 раз
Статус: √ проверено
Размер: 4.37 GB
Как cкачать? Как скачать Большой собачий побег через торрент | qTorrent

% Раздел Тема Автор DL S | L
Зарубежные Мультфильмы (WEB-DL 720p, 1080p) [ 3.58 GB ] Большой собачий побег / Ozzy [2016 мультфильм WEB-DL 1080p] 2x[Dub] killermax2013 Скачать
1 | 0
Иностранные мультфильмы [ 1.46 GB ] Большой собачий побег / Ozzy [2016 мультфильм BDRip] - [] Twi7ter Скачать
1 | 0
R.G.Resident - Мультфильмы, Видео [ 2.16 GB ] Большой собачий побег / Ozzy [2016 мультфильм BDRip-AVC] schultz Скачать
1 | 0
Фильмы с украинским озвучиванием [ 1.45 GB ] Большой собачий побег / Велика втеча / Ozzy [2016 мультфильм WEB-DLRip] [Ukr Dub] killermax2013 Скачать
1 | 0


>> Регистрируемся здесь <<






Отзывы и комментарии о схеме читаем и пишем здесь: ---> Отзывы и комментарии о схеме

Новые благодарочки в телеграм довольных пользователей:
скриншот   скриншот   скриншот   скриншот   скриншот

04-10-2017 19:30 Большой собачий побег Скачать торрент  

pb.wtf



    Дорогой пользователь! Огромная просьба, поблагодарите релизера, оцените раздачу и оставьте свои комментарий, если Вы скачали Большой собачий побег через торрент бесплатно! Внесите свою лепту в развитие PiratBit!
    Комментировать посты могут только пользователи прошедшие не сложную регистрацию
    Показать сообщения:    

    Большой собачий побег через торрент
    Скачать бесплатно Большой собачий побег
    Большой собачий побег скачать торрент
    Большой собачий побег смотреть онлайн
    Cкачать фильм Большой собачий побег бесплатно
    Большой собачий побег скачать торрент в хорошем качестве
    Большой собачий побег смотреть онлайн бесплатно в хорошем качестве


    Вы не можете начинать темы
    Вы не можете отвечать на сообщения
    Вы не можете редактировать свои сообщения
    Вы не можете удалять свои сообщения
    Вы не можете голосовать в опросах
    Вы не можете прикреплять файлы к сообщениям
    Вы можете скачивать файлы