Ссылка на приватное зеркало нашего сайта всего за 1$. Внимание количество ограничено!!!

2 сезон

iTunes

1 сезон

1

2 сезон

2 сезон

iTunes

1 сезон

RePack

30

Новинка

ВАЖНО

ИГРА 18+

pack

RePack

MK11
pack

Забери бонус

RePack

jed

!!Акция!!

Alien_Rage

RePack

fifa19

RePack

Assassins Creed: Odyssey

RePack

NEED FOR SPEED™ PAYBACK

4 сезон

9 сезон

Бесстыжие 9 сезон

Все сериалы

все сериалы на PB.wtf

RePack

FAR CRY 5
  

Госпожа горничная / Maid in Manhattan (Уэйн Ван) [2002, Мелодрама, комедия, драма, BD Remux 1080p] DUB+MVO pb.wtf

Госпожа горничная через торрент pb.wtf

Размер: 21.92 GB | Добавлен: 3 года 1 мес. назад | Торрент скачан:2 раза
Скачать  

04-10-2017 08:17 Госпожа горничная Скачать торрент  

Госпожа горничная / Maid in ManhattanГод выпуска: 2002
Страна: США
Жанр: Мелодрама, комедия, драма
Продолжительность: 01:45:17
Перевод: Дубляж, профессиональный многоголосый
Субтитры: Русские, английские

Режиссер: Уэйн Ван

rating

В ролях:

Дженнифер Лопес, Рэйф Файнс, Наташа Ричардсон, Стэнли Туччи, Тайлер Пози, Фрэнсис Конрой, Кристофер Айджмен, Эми Седарис, Марисса Мэтроун, Присцилла Лопез

Описание:

Дженнифер Лопез — Мариса Вентура, независимая мать — одиночка, которая живет в Бронксе с сыном Ти, и работает горничной в первоклассном Манхэттенском отеле. Она мечтает о лучшей жизни, но с ребенком достичь этого достаточно сложно. Кристофер Хэлл, красивый, обаятельный наследник известной американской политической династии, приехал в Нью-Йорк на неделю для встречи с важными шишками из политического бомонда и останавливается в отеле, где работает Мариса. По стечению обстоятельств и странным поворотам судьбы они встречаются…

Качество: BD Remux 1080p
Формат: MKV
Видео кодек: H.264
Аудио кодек: AC3

Видео: 27.4 Мбит/с, 1920x1080,23.976 Кадр/с
Аудио#1: Английский: TrueHD, 6 ch, 1281 Кбит/с - Оригинал
Аудио#2: Русский: AC3 Dolby Digital, 3/2 (L,C,R,l,r) + LFE ch / 48 kHz / 16-bit / 640 kbps - Дубляж
Аудио#3: Русский: AC3 Dolby Digital, 3/2 (L,C,R,l,r) + LFE ch / 48 kHz / 16-bit / 384 kbps - Профессиональный многоголосый
скриншот   скриншот   скриншот   скриншот   скриншот   скриншот  

Общее
Уникальный идентификатор : 243921702931048802778376725408389407356 (0xB7819C76092A983EB30DBF34E012227C)
Полное имя : D:\РЕМУКС!!!!!\Госпожа горничная.BDRemux..mkv
Формат : Matroska
Версия формата : Version 4 / Version 2
Размер файла : 21,9 Гбайт
Продолжительность : 1 ч. 45 м.
Режим общего битрейта : Переменный
Общий поток : 29,8 Мбит/сек
Дата кодирования : UTC 2015-07-27 10:22:43
Программа кодирования : mkvmerge v6.1.0 ('Old Devil') built on Mar 4 2013 09:10:42
Библиотека кодирования : libebml v1.3.0 + libmatroska v1.4.0

Видео
Идентификатор : 1
Формат : AVC
Формат/Информация : Advanced Video Codec
Профиль формата : High@L4.1
Параметр CABAC формата : Да
Параметр ReFrames формата : 2 кадра
Идентификатор кодека : V_MPEG4/ISO/AVC
Продолжительность : 1 ч. 45 м.
Вид битрейта : Переменный
Ширина : 1920 пикселей
Высота : 1080 пикселей
Соотношение сторон : 16:9
Режим частоты кадров : Постоянный
Частота кадров : 23,976 кадра/сек
Цветовое пространство : YUV
Субдискретизация насыщенности : 4:2:0
Битовая глубина : 8 бит
Тип развёртки : Прогрессивная
Default : Да
Forced : Нет

Аудио #1
Идентификатор : 2
Формат : TrueHD
Идентификатор кодека : A_TRUEHD
Продолжительность : 1 ч. 45 м.
Вид битрейта : Переменный
Максимальный битрейт : 2475 Кбит/сек
Каналы : 6 каналов
Расположение каналов : Front: L C R, Side: L R, LFE
Частота : 48,0 КГц
Метод сжатия : Без потерь
Заголовок : Английский True-HD 1281 кб/с
Язык : English
Default : Нет
Forced : Нет

Аудио #2
Идентификатор : 3
Формат : AC-3
Формат/Информация : Audio Coding 3
Расширение режима : CM (complete main)
Параметр Endianness формата : Big
Идентификатор кодека : A_AC3
Продолжительность : 1 ч. 45 м.
Вид битрейта : Постоянный
Битрейт : 640 Кбит/сек
Каналы : 6 каналов
Расположение каналов : Front: L C R, Side: L R, LFE
Частота : 48,0 КГц
Битовая глубина : 16 бит
Метод сжатия : С потерями
Размер потока : 482 Мбайт (2%)
Заголовок : Русский (AC3) 640 кб/с -дубляж
Язык : Russian
Default : Да
Forced : Нет

Аудио #3
Идентификатор : 4
Формат : AC-3
Формат/Информация : Audio Coding 3
Расширение режима : CM (complete main)
Параметр Endianness формата : Big
Идентификатор кодека : A_AC3
Продолжительность : 1 ч. 45 м.
Вид битрейта : Постоянный
Битрейт : 384 Кбит/сек
Каналы : 6 каналов
Расположение каналов : Front: L C R, Side: L R, LFE
Частота : 48,0 КГц
Битовая глубина : 16 бит
Метод сжатия : С потерями
Размер потока : 289 Мбайт (1%)
Заголовок : Русский (AC3) 384 кб/с - ПМ
Язык : Russian
Default : Нет
Forced : Нет

Текст #1
Идентификатор : 5
Формат : UTF-8
Идентификатор кодека : S_TEXT/UTF8
Идентификатор кодека/Информация : UTF-8 Plain Text
Заголовок : Русские
Язык : Russian
Default : Нет
Forced : Нет

Текст #2
Идентификатор : 6
Формат : UTF-8
Идентификатор кодека : S_TEXT/UTF8
Идентификатор кодека/Информация : UTF-8 Plain Text
Заголовок : Русские
Язык : Russian
Default : Нет
Forced : Нет

Текст #3
Идентификатор : 7
Формат : UTF-8
Идентификатор кодека : S_TEXT/UTF8
Идентификатор кодека/Информация : UTF-8 Plain Text
Заголовок : Английские
Язык : English
Default : Нет
Forced : Нет

Меню
00:00:00.000 : :Chapter 01
00:07:59.187 : :Chapter 02
00:13:31.519 : :Chapter 03
00:19:01.223 : :Chapter 04
00:27:00.535 : :Chapter 05
00:33:15.868 : :Chapter 06
00:39:45.883 : :Chapter 07
00:44:42.888 : :Chapter 08
00:50:24.730 : :Chapter 09
00:58:30.340 : :Chapter 10
01:04:51.554 : :Chapter 11
01:10:34.688 : :Chapter 12
01:15:24.478 : :Chapter 13
01:20:19.773 : :Chapter 14
01:28:02.652 : :Chapter 15
01:35:03.197 : :Chapter 16

pb.wtf



Скачать Госпожа горничная через торрент http://s016.radikal.ru/i335/1710/b3/22441773eb1b.jpg Скачать фильм Госпожа горничная через торрент бесплантно в хорошем качестве Описание: Дженнифер Лопез — Мариса Вентура, независимая мать — одиночка, которая живет в Бронксе с сыном Ти, и работает горничной в ... 10 10 3
Info! Золотая раздача, скачанное не засчитывается.
Торрент: Зарегистрирован [2017-10-04 08:17] · скачан: 2 раз
Статус: √ проверено
Размер: 21.92 GB
Как cкачать? Как скачать Госпожа горничная через торрент | qTorrent

% Раздел Тема Автор DL S | L
Фильмы [HD 720p, 1080p] (Хороший звук DUB, MVO) [ 4.1 GB ] Госпожа горничная / Maid in Manhattan [2002 BDRip 720p by msltel] DUB MVO msltel Скачать
1 | 0
Фильмы [HD 720p, 1080p] (Хороший звук DUB, MVO) [ 10.04 GB ] Госпожа горничная / Maid in Manhattan [2002 BDRip 1080p by msltel] DUB MVO msltel Скачать
1 | 0
Фильмы 2001-2005 [ 2.51 GB ] Госпожа горничная / Maid in Manhattan [2002 BDRip AVC by msltel] DUB MVO msltel Скачать
1 | 0

28-11-2019 20:33  

Отключить всю рекламу на сайте

    Дорогой пользователь! Огромная просьба, поблагодарите релизера, оцените раздачу и оставьте свои комментарий, если Вы скачали Госпожа горничная через торрент бесплатно! Внесите свою лепту в развитие PiratBit!
    Комментировать посты могут только пользователи прошедшие не сложную регистрацию
    Показать сообщения:    

    Госпожа горничная через торрент
    Скачать бесплатно Госпожа горничная
    Госпожа горничная скачать торрент
    Госпожа горничная смотреть онлайн
    Cкачать фильм Госпожа горничная бесплатно
    Госпожа горничная скачать торрент в хорошем качестве
    Госпожа горничная смотреть онлайн бесплатно в хорошем качестве


    Вы не можете начинать темы
    Вы не можете отвечать на сообщения
    Вы не можете редактировать свои сообщения
    Вы не можете удалять свои сообщения
    Вы не можете голосовать в опросах
    Вы не можете прикреплять файлы к сообщениям
    Вы можете скачивать файлы