Ссылка на приватное зеркало нашего сайта всего за 1$. Внимание количество ограничено!!!

2 сезон

iTunes

1 сезон

1

iTunes

iTunes

iTunes

1 сезон

RePack

30

ИГРА 18+

pack

ВАЖНО

!!Акция!!

Alien_RageХит недели

RePack

MK11
pack

Забери бонус

RePack

jed

!!Акция!!

Alien_Rage

RePack

fifa19

RePack

Assassins Creed: Odyssey

RePack

NEED FOR SPEED™ PAYBACK

4 сезон

9 сезон

Бесстыжие 9 сезон

Все сериалы

все сериалы на PB.wtf

RePack

FAR CRY 5
  

Рио Гранде / Rio Grande (Джон Форд) [1950, мелодрама, вестерн, BDRip 1080p by msltel] 2 x MVO pb.wtf

Рио Гранде через торрент pb.wtf

Размер: 10.2 GB | Добавлен: 3 года назад | Торрент скачан:9 раз
Скачать  

04-10-2017 13:23 Рио Гранде Скачать торрент  

Название: Рио Гранде
Оригинальное название: Rio Grande
Год выпуска: 1950
Страна: США
Жанр: мелодрама, вестерн
Продолжительность: 01:45:30
Перевод: профессиональный многоголосый

Режиссер: Джон Форд
В ролях: Джон Уэйн, Морин О`Хара, Бен Джонсон, Клод Джармен мл., Гарри Кэри мл., Чилл Уиллс, Джей Кэррол Нэйш, Виктор МакЛаглен, Грант Уизерс, Питер Ортиц, Стив Пендлтон (I), Кэролайн Граймс, Стэн Джоунс, Альберто Морин, Фред Кеннеди

О фильме: Керби Йорк, подполковник, кавалерийский офицер, суров по отношению к своим солдатам, но его нрав несколько смягчается, когда к нему на службу прибывает его единственный сын Джефф, уволенный из военного училища. Джефф, поступив в кавалерию, хочет доказать отцу, что он чего-то стоит. Керби не дает поблажек на службе никому, а тем более любимому сыну. Армейская жизнь для него не романтические приключения, а борьба с трудностями на грани человеческих возможностей. Новобранца берут под своё крылышко весельчаки Трэвис и Бун. Эти парни приглядывают за юношей и опекают его. Вскоре в форт прибывает Кэтлин Йорк - бывшая жена Кирби, чей дом он сжёг во время гражданской войны. Она решительно настроена добиться ухода её сына Джеффа из армии и возвращения любви мужа. Сын попадает под влияние отца, но при этом не теряет чувствительности матери. Вместе с сыном Йорк ведёт свою команду в погоню за индейцами, которые сбежали из Мексики...



Качество: BDRip 1080p
Формат: MKV
Видео: MPEG-4 AVC, 12.7 Mбит/с, 1456x1080, 23.976 кадр/с
Аудио 1: русский, AC3, 192 kbps, 2 ch, 48 kHz [профессиональный многоголосый, OPT]
Аудио 2: русский, AC3, 192 kbps, 2 ch, 48 kHz [профессиональный многоголосый, Светла]
Аудио 3: английский, DTS, 768 kbps, 1 ch, 48 kHz [оригинал]
Субтитры: английские
Имеются неименованные главы/чаптеры.
Общее
Уникальный идентификатор : 235735906297692423338290963347215723772 (0xB1591586F6245A62AE412E3221DBACFC)
Полное имя : D:\Video\Рио Гранде.1950.BDRip.1080p by msltel.mkv
Формат : Matroska
Версия формата : Version 4 / Version 2
Размер файла : 10,2 Гбайт
Продолжительность : 1 ч. 45 м.
Общий поток : 13,8 Мбит/сек
Название фильма : Rip by msltel
Дата кодирования : UTC 2017-10-04 04:26:18
Программа кодирования : mkvmerge v8.2.0 ('World of Adventure') 64bit
Библиотека кодирования : libebml v1.3.1 + libmatroska v1.4.2

Видео
Идентификатор : 1
Формат : AVC
Формат/Информация : Advanced Video Codec
Профиль формата : High@L4.1
Параметр CABAC формата : Да
Параметр RefFrames формата : 4 кадра
Идентификатор кодека : V_MPEG4/ISO/AVC
Продолжительность : 1 ч. 45 м.
Битрейт : 12,7 Мбит/сек
Ширина : 1456 пикселей
Высота : 1080 пикселей
Соотношение сторон : 4:3
Режим частоты кадров : Постоянный
Частота кадров : 23,976 (24000/1001) кадра/сек
Цветовое пространство : YUV
Субдискретизация насыщенности : 4:2:0
Битовая глубина : 8 бит
Тип развёртки : Прогрессивная
Бит/(Пиксели*Кадры) : 0.336
Размер потока : 9,35 Гбайт (92%)
Библиотека кодирования : x264 core 146 r2538 121396c
Настройки программы : cabac=1 / ref=4 / deblock=1:-3:-2 / analyse=0x3:0x113 / me=umh / subme=11 / psy=1 / psy_rd=1.00:0.15 / mixed_ref=1 / me_range=32 / chroma_me=1 / trellis=2 / 8x8dct=1 / cqm=0 / deadzone=21,11 / fast_pskip=0 / chroma_qp_offset=-3 / threads=6 / lookahead_threads=1 / sliced_threads=0 / nr=0 / decimate=1 / interlaced=0 / bluray_compat=0 / constrained_intra=0 / bframes=11 / b_pyramid=2 / b_adapt=2 / b_bias=0 / direct=1 / weightb=1 / open_gop=0 / weightp=2 / keyint=230 / keyint_min=23 / scenecut=40 / intra_refresh=0 / rc_lookahead=40 / rc=crf / mbtree=0 / crf=19.8 / qcomp=0.60 / qpmin=0 / qpmax=69 / qpstep=4 / vbv_maxrate=62500 / vbv_bufsize=78125 / crf_max=0.0 / nal_hrd=none / filler=0 / ip_ratio=1.40 / pb_ratio=1.30 / aq=1:1.00
Язык : English
Default : Да
Forced : Нет

Аудио #1
Идентификатор : 2
Формат : AC-3
Формат/Информация : Audio Coding 3
Параметр Endianness формата : Big
Идентификатор кодека : A_AC3
Продолжительность : 1 ч. 45 м.
Вид битрейта : Постоянный
Битрейт : 192 Кбит/сек
Каналы : 2 канала
Расположение каналов : Front: L R
Частота : 48,0 КГц
Частота кадров : 31,250 кадров/сек (1536 SPF)
Битовая глубина : 16 бит
Метод сжатия : С потерями
Размер потока : 145 Мбайт (1%)
Заголовок : MVO.OPT
Язык : Russian
ServiceKind/String : Complete Main
Default : Да
Forced : Нет

Аудио #2
Идентификатор : 3
Формат : AC-3
Формат/Информация : Audio Coding 3
Параметр Endianness формата : Big
Идентификатор кодека : A_AC3
Продолжительность : 1 ч. 45 м.
Вид битрейта : Постоянный
Битрейт : 192 Кбит/сек
Каналы : 2 канала
Расположение каналов : Front: L R
Частота : 48,0 КГц
Частота кадров : 31,250 кадров/сек (1536 SPF)
Битовая глубина : 16 бит
Метод сжатия : С потерями
Размер потока : 145 Мбайт (1%)
Заголовок : MVO.Светла
Язык : Russian
ServiceKind/String : Complete Main
Default : Нет
Forced : Нет

Аудио #3
Идентификатор : 4
Формат : DTS
Формат/Информация : Digital Theater Systems
Режим : 16
Параметр Endianness формата : Big
Идентификатор кодека : A_DTS
Продолжительность : 1 ч. 45 м.
Вид битрейта : Постоянный
Битрейт : 768 Кбит/сек
Каналы : 1 канал
Расположение каналов : Front: C
Частота : 48,0 КГц
Частота кадров : 93,750 кадра/сек (512 SPF)
Битовая глубина : 16 бит
Метод сжатия : С потерями
Размер потока : 580 Мбайт (6%)
Заголовок : original
Язык : English
Default : Нет
Forced : Нет

Текст
Идентификатор : 5
Формат : UTF-8
Идентификатор кодека : S_TEXT/UTF8
Идентификатор кодека/Информация : UTF-8 Plain Text
Продолжительность : 1 ч. 40 м.
Битрейт : 45 бит/сек
ElementCount : 734
Размер потока : 33,7 Кбайт (0%)
Заголовок : английские
Язык : English
Default : Нет
Forced : Нет

Меню
00:00:00.000 : :Chapter 01
00:08:09.155 : :Chapter 02
00:19:58.071 : :Chapter 03
00:31:39.480 : :Chapter 04
00:48:07.259 : :Chapter 05
01:08:18.928 : :Chapter 06
01:21:04.693 : :Chapter 07
01:29:46.631 : :Chapter 08
01:45:29.990 : :Chapter 09
pb.wtf



Скачать Рио Гранде через торрент http://s018.radikal.ru/i506/1710/22/a7f050c26973.jpg Скачать фильм Рио Гранде через торрент бесплантно в хорошем качестве О фильме: Керби Йорк, подполковник, кавалерийский офицер, суров по отношению к своим солдатам, но его нрав несколько смягчается, когда к ... 10 10 2
Info! Золотая раздача, скачанное не засчитывается.
Торрент: Зарегистрирован [2017-10-04 13:23] · скачан: 9 раз
Статус: √ проверено
Размер: 10.2 GB
Как cкачать? Как скачать Рио Гранде через торрент | qTorrent

% Раздел Тема Автор DL S | L
Фильмы [HD 720p, 1080p] (Хороший звук DUB, MVO) [ 4.02 GB ] Рио Гранде / Rio Grande [1950 BDRip 720p by msltel] 2 x MVO msltel Скачать
1 | 0

28-11-2019 20:33  

Отключить всю рекламу на сайте

    Дорогой пользователь! Огромная просьба, поблагодарите релизера, оцените раздачу и оставьте свои комментарий, если Вы скачали Рио Гранде через торрент бесплатно! Внесите свою лепту в развитие PiratBit!
    Комментировать посты могут только пользователи прошедшие не сложную регистрацию
    Показать сообщения:    

    Рио Гранде через торрент
    Скачать бесплатно Рио Гранде
    Рио Гранде скачать торрент
    Рио Гранде смотреть онлайн
    Cкачать фильм Рио Гранде бесплатно
    Рио Гранде скачать торрент в хорошем качестве
    Рио Гранде смотреть онлайн бесплатно в хорошем качестве


    Вы не можете начинать темы
    Вы не можете отвечать на сообщения
    Вы не можете редактировать свои сообщения
    Вы не можете удалять свои сообщения
    Вы не можете голосовать в опросах
    Вы не можете прикреплять файлы к сообщениям
    Вы можете скачивать файлы