Всегда рабочее зеркало без VPN и Proxy просто перед .vidak.icu напиши любое слово или цифру, Пример http://iyv1.vidak.icu

MVO

MVO

1 сезон

1

1 сезон

iTunes

1 сезон

13

1 сезон

Deluxe

pack

Рекомендуем

Repack

30

ВАЖНО

RePack

MK11

RePack

jed

RePack

fifa19

RePack

RDR2

RePack

NEED FOR SPEED™ PAYBACK

Кинопоиск HD

6 сезон

 Острые козырьки 6 сезон

Все сериалы

все сериалы на PB.wtf

RePack

FAR CRY 5
  
Magnet ссылка

Девушка с татуировкой дракона / Man som hatar kvinnor (Нильс Арден Оплев) [2009, Триллер, драма, криминал, детектив, BD Remux 1080p] DUB+DVO+AVO pb.wtf

Девушка с татуировкой дракона через торрент pb.wtf

Размер: 35.75 GB | Добавлен: 4 года 10 мес. назад | Торрент скачан:14 раз
Смотреть онлайн Девушка с татуировкой дракона | Скачать    Ребята, помогите собрать деньги на оплату серверов!!!

04-10-2017 14:18 Девушка с татуировкой дракона Скачать торрент  

Девушка с татуировкой дракона / Man som hatar kvinnorГод выпуска: 2009
Страна: Германия, Дания, Швеция, Норвегия
Жанр: Триллер, драма, криминал, детектив, экранизация
Продолжительность: 02:32:43
Перевод: Дубляж, профессиональный двухголосый, авторский
Субтитры: Русские, английские

Режиссер: Нильс Арден Оплев

rating

В ролях:

Микаэл Нюквист, Нуми Рапас, Лена Эндре, Питер Абер, Владимир Антоник, Свен-Бертиль Таубе, Петер Андерссон, Ингвар Хирдвалль, Марика Лагеркранц, Бьёрн Гранат, Ева Фрёлинг, Михалис Куцогиннакис, Анника Халлин, София Ледарп, Томас Колер, Давид Денсик, Стефан Саук, Фредерик Олссон, Джейкоб Эрикссон

Описание:

Экранизация одноимённого романа Стига Ларссона. Микаэль Блумквист — талантливый журналист, который верой и правдой добивается справедливости в самых скандальных делах, — неожиданно терпит фиаско в своей деятельности, в результате чего вынужден отбыть срок лишения свободы. В то же время влиятельный человек Хенрик Вангер поручает ему дело о пропаже его племянницы, которая таинственным образом исчезла из имения Вангеров и о которой вот уже множество лет нет никаких новостей. Но попытки Хенрика разыскать родственницу так же не приводят к положительным результатам. Будучи скептиком, Микаэль сначала не верит в удачу, но вскоре обнаруживает запутанную и леденящую кровь историю, связанную с семейством Вангеров. В этом журналисту помогает неформальная особа Лисбет Саландер, прослывшая не только гениальным умом, фотографической памятью, но и прекрасными хакерскими способностями...

Качество: BD Remux 1080p
Формат: MKV
Видео кодек: H.264
Аудио кодек: AC3/DTS

Видео: 28050 Кбит/с, 1920x1080, 24 кадр/с
Аудио#1: Русский AC3 5.1, 48 kHz, 384 Кбит/с - Дубляж (R5, КАРМЕН ВИДЕО)
Аудио#2: Русский DTS-HD Master Audio 5.1, 48 KHz, 16 bit, 2416 Кбит/с (DTS Core: 5.1 / 48 kHz / 1536 Кбит/с / 16-bit) - Дубляж (R5, КАРМЕН ВИДЕО)
Аудио#3: Русский (DTS, 6 ch, 1510 Кбит/с) - Профессиональный двухголосый
Аудио#4: Русский, 48 kHz, AC3, 6 ch, ~384 Кбит/с - Авторский (Юрий Сербин)
Аудио#5: Шведский DTS 5.1, 48 KHz, 24 bit, 768 Кбит/с - Оригинал
скриншот   скриншот   скриншот   скриншот  

Общее
Уникальный идентификатор : 238757623949003309405078519430909696895 (0xB39F0BB5B591FCE69FFD9A23D6AA9B7F)
Полное имя : D:\РЕМУКС с\Девушка с татуировкой дракона. BDRemux..mkv
Формат : Matroska
Версия формата : Version 4 / Version 2
Размер файла : 35,8 Гбайт
Продолжительность : 2 ч. 32 м.
Режим общего битрейта : Переменный
Общий поток : 33,5 Мбит/сек
Название фильма : The.Girl.With.The.Dragon.Tattoo.2009.AVC.DTS-HD.BDRemux-HDBiZ
Дата кодирования : UTC 2015-07-27 14:17:10
Программа кодирования : mkvmerge v6.1.0 ('Old Devil') built on Mar 4 2013 09:10:42
Библиотека кодирования : libebml v1.3.0 + libmatroska v1.4.0

Видео
Идентификатор : 1
Формат : AVC
Формат/Информация : Advanced Video Codec
Профиль формата : [email protected]
Параметр CABAC формата : Да
Параметр ReFrames формата : 4 кадра
Идентификатор кодека : V_MPEG4/ISO/AVC
Продолжительность : 2 ч. 32 м.
Вид битрейта : Переменный
Максимальный битрейт : 35,0 Мбит/сек
Ширина : 1920 пикселей
Высота : 1080 пикселей
Соотношение сторон : 16:9
Режим частоты кадров : Постоянный
Частота кадров : 24,000 кадра/сек
Стандарт вещания : NTSC
Цветовое пространство : YUV
Субдискретизация насыщенности : 4:2:0
Битовая глубина : 8 бит
Тип развёртки : Прогрессивная
Язык : Swedish
Default : Да
Forced : Нет
Основные цвета : BT.709
Характеристики трансфера : BT.709
Коэффициенты матрицы : BT.709

Аудио #1
Идентификатор : 2
Формат : AC-3
Формат/Информация : Audio Coding 3
Расширение режима : CM (complete main)
Параметр Endianness формата : Big
Идентификатор кодека : A_AC3
Продолжительность : 2 ч. 32 м.
Вид битрейта : Постоянный
Битрейт : 384 Кбит/сек
Каналы : 6 каналов
Расположение каналов : Front: L C R, Side: L R, LFE
Частота : 48,0 КГц
Битовая глубина : 16 бит
Метод сжатия : С потерями
Размер потока : 419 Мбайт (1%)
Заголовок : Профессиональный (дублированный, R5)
Язык : Russian
Default : Нет
Forced : Нет

Аудио #2
Идентификатор : 3
Формат : DTS
Формат/Информация : Digital Theater Systems
Профиль формата : MA / Core
Режим : 16
Параметр Endianness формата : Big
Идентификатор кодека : A_DTS
Продолжительность : 2 ч. 32 м.
Вид битрейта : Переменный
Битрейт : Неизвестно / 1509 Кбит/сек
Каналы : 6 каналов
Расположение каналов : Front: L C R, Side: L R, LFE
Частота : 48,0 КГц
Битовая глубина : 16 бит
Метод сжатия : Без потерь / Lossy
Заголовок : Русский DTS-HD MА 2416 kbps - дубляж
Язык : Russian
Default : Да
Forced : Нет

Аудио #3
Идентификатор : 4
Формат : DTS
Формат/Информация : Digital Theater Systems
Режим : 16
Параметр Endianness формата : Big
Идентификатор кодека : A_DTS
Продолжительность : 2 ч. 32 м.
Вид битрейта : Постоянный
Битрейт : 1510 Кбит/сек
Каналы : 6 каналов
Расположение каналов : Front: L C R, Side: L R, LFE
Частота : 48,0 КГц
Битовая глубина : 24 бит
Метод сжатия : С потерями
Размер потока : 1,61 Гбайт (5%)
Заголовок : Профессиональный (двухголосный)
Язык : Russian
Default : Нет
Forced : Нет

Аудио #4
Идентификатор : 5
Формат : AC-3
Формат/Информация : Audio Coding 3
Расширение режима : CM (complete main)
Параметр Endianness формата : Big
Идентификатор кодека : A_AC3
Продолжительность : 2 ч. 32 м.
Вид битрейта : Постоянный
Битрейт : 384 Кбит/сек
Каналы : 6 каналов
Расположение каналов : Front: L C R, Side: L R, LFE
Частота : 48,0 КГц
Битовая глубина : 16 бит
Метод сжатия : С потерями
Размер потока : 419 Мбайт (1%)
Заголовок : Русский AC3 384 kbps - Сербин
Язык : Russian
Default : Нет
Forced : Нет

Аудио #5
Идентификатор : 6
Формат : DTS
Формат/Информация : Digital Theater Systems
Режим : 16
Параметр Endianness формата : Big
Идентификатор кодека : A_DTS
Продолжительность : 2 ч. 32 м.
Вид битрейта : Постоянный
Битрейт : 768 Кбит/сек
Каналы : 6 каналов
Расположение каналов : Front: L C R, Side: L R, LFE
Частота : 48,0 КГц
Битовая глубина : 24 бит
Метод сжатия : С потерями
Размер потока : 839 Мбайт (2%)
Заголовок : Шведский DTS 768 kbps
Язык : Swedish
Default : Нет
Forced : Нет

Текст #1
Идентификатор : 7
Формат : UTF-8
Идентификатор кодека : S_TEXT/UTF8
Идентификатор кодека/Информация : UTF-8 Plain Text
Заголовок : Русский (R5)
Язык : Russian
Default : Нет
Forced : Нет

Текст #2
Идентификатор : 8
Формат : UTF-8
Идентификатор кодека : S_TEXT/UTF8
Идентификатор кодека/Информация : UTF-8 Plain Text
Заголовок : Английский
Язык : English
Default : Нет
Forced : Нет

Меню
00:00:00.000 : :Chapter 01
00:07:23.192 : :Chapter 02
00:16:55.681 : :Chapter 03
00:23:36.415 : :Chapter 04
00:32:21.856 : :Chapter 05
00:43:34.820 : :Chapter 06
00:47:34.309 : :Chapter 07
00:58:29.339 : :Chapter 08
01:05:34.472 : :Chapter 09
01:14:44.104 : :Chapter 10
01:24:14.340 : :Chapter 11
01:31:11.340 : :Chapter 12
01:43:58.565 : :Chapter 13
01:52:00.839 : :Chapter 14
02:09:32.765 : :Chapter 15
02:25:39.105 : :Chapter 16
02:32:43.529 : :Chapter 17

pb.wtf



Скачать Девушка с татуировкой дракона через торрент http://s019.radikal.ru/i636/1710/94/01e6342f3695.jpg Скачать, смотреть онлайн Девушка с татуировкой дракона бесплантно в хорошем качестве Описание: Экранизация одноимённого романа Стига Ларссона. Микаэль Блумквист — талантливый журналист, который верой и правдой добивается ... 10 10 5
Info! Золотая раздача, скачанное не засчитывается.
Торрент: Зарегистрирован [2017-10-04 14:18] · скачан: 14 раз
Статус: √ проверено
Размер: 35.75 GB
Как cкачать? Как скачать Девушка с татуировкой дракона через торрент | UTorrent

28-11-2019 20:33  

Отключить вcю реклaмy на сайте

    Дорогой пользователь! Огромная просьба, поблагодарите релизера, оцените раздачу и оставьте свои комментарий, если Вы скачали Девушка с татуировкой дракона через торрент бесплатно!
    Комментировать посты могут только пользователи прошедшие не сложную регистрацию
    Показать сообщения:    

    Девушка с татуировкой дракона через торрент
    Скачать бесплатно Девушка с татуировкой дракона
    Девушка с татуировкой дракона скачать торрент
    Девушка с татуировкой дракона смотреть онлайн
    Cкачать фильм Девушка с татуировкой дракона бесплатно
    Девушка с татуировкой дракона скачать торрент в хорошем качестве
    Девушка с татуировкой дракона смотреть онлайн бесплатно в хорошем качестве


    Вы не можете начинать темы
    Вы не можете отвечать на сообщения
    Вы не можете редактировать свои сообщения
    Вы не можете удалять свои сообщения
    Вы не можете голосовать в опросах
    Вы не можете прикреплять файлы к сообщениям
    Вы можете скачивать файлы