Ссылка на приватное зеркало всего за 1$. Внимание количество ограничено!!!


iTunes

1+1

iTunes

мы

WEB-DL

1

iTunes

Чернобыль

iTunes

Ральф против интернета

Лицензия

ПШазам

Лицензия

Оно 2

WEB-DL

30
pack

Вам бонус

ВАЖНО

!!Акция!!

Alien_RageХит недели

RePack

Resident Evil 21

ИГРА 18+

pack

RePack

jed

!!Акция!!

Alien_Rage

RePack

fifa19

RePack

Assassins Creed: Odyssey

RePack

NEED FOR SPEED™ PAYBACK

4 сезон

9 сезон

Бесстыжие 9 сезон

Все сериалы

все сериалы на PB.wtf

RePack

FAR CRY 5
Ребята, катастрофически не хватает 1900р. для оплаты серверов за Октябрь (всвязи с блокировками трафик упал в 3 раза), 1-2р., выручайте.
  

У героев не мерзнут уши / Les héros n'ont pas froid aux oreilles (Шарль Немес) [1978 г., Комедия, драма, DVDRip, Профессиональный (двухголосый)] от ExKinoRay pb.wtf

У героев не мерзнут уши через торрент pb.wtf

Размер: 1.05 GB | Добавлен: 2 года 2 мес. назад | Торрент скачан:18 раз
Скачать  

04-10-2017 17:18 У героев не мерзнут уши Скачать торрент  

У героев не мерзнут уши / Les héros n'ont pas froid aux oreilles
Год выпуска: 1978
Страна: Франция
Жанр: Комедия, драма
Продолжительность: 01:19:01
Перевод: Профессиональный (двухголосый)

Режиссер: Шарль Немес

Премьера в мире: 17 января 1979

rating

В ролях: Жерар Жюньо, Даниель Отой, Анн Жуссе, Анри Гюибе, Ролан Жиро, Жерар Ланвен, Жозиан Баласко, Мишель Блан, Мари-Анн Шазель, Кристиан Клавье, Тьерри Лермитт, Мартин Ламотт

Описание: Два братца, Жан-Бернар и Пьер - холостяки. Оба находятся в постоянном поиске женщины, но неудачи подстерегают их на каждом шагу. И вот, наконец, в доме братьев появляется девушка, которую они подобрали во время автомобильного путешествия. Каждый из двух чудаков хочет понравиться Карин. Чтобы привлечь ее внимание, они готовы творить невероятные глупости. Но настало время решающих действий. Кого выберет Карин?

Доп. информация: Профессиональный двухголосый (OРТ)

Качество: DVDRip
Формат: AVI
Видео кодек: XviD
Аудио кодек: AC3
Видео: XviD, 1504 Кбит/сек, 704x416, 25 кадров/сек
Аудио#1: Русский (AC3, 2 ch, 192 Кбит/с, 48 КГц)
Аудио#2: Французский (AC3, 2 ch, 192 Кбит/с, 48 КГц)
Релиз от:




Общее
Полное имя : D:\Relizes\Les.heros.1978.DVDRip.ExKinoRay.avi
Формат : AVI
Формат/Информация : Audio Video Interleave
Размер файла : 1,05 Гбайт
Продолжительность : 1 ч. 19 м.
Общий поток : 1902 Кбит/сек
Программа кодирования : VirtualDubMod 1.5.10.3 (build 2550/release)
Библиотека кодирования : VirtualDubMod build 2550/release

Видео
Идентификатор : 0
Формат : MPEG-4 Visual
Профиль формата : Advanced Simple@L5
Параметр BVOP формата : 1
Параметр QPel формата : Нет
Параметр GMC формата : Без точки перехода
Параметр матрицы формата : Default (H.263)
Идентификатор кодека : XVID
Идентификатор кодека/Подсказка : XviD
Продолжительность : 1 ч. 19 м.
Битрейт : 1504 Кбит/сек
Ширина : 704 пикселя
Высота : 416 пикселей
Соотношение сторон : 5:3
Частота кадров : 25,000 кадров/сек
Цветовое пространство : YUV
Субдискретизация насыщенности : 4:2:0
Битовая глубина : 8 бит
Тип развёртки : Прогрессивная
Метод сжатия : С потерями
Бит/(Пиксели*Кадры) : 0.205
Размер потока : 850 Мбайт (79%)
Библиотека кодирования : XviD 1.2.1 (UTC 2008-12-04)

Аудио #1
Идентификатор : 1
Формат : AC-3
Формат/Информация : Audio Coding 3
Расширение режима : CM (complete main)
Параметр Endianness формата : Big
Идентификатор кодека : 2000
Продолжительность : 1 ч. 19 м.
Вид битрейта : Постоянный
Битрейт : 192 Кбит/сек
Каналы : 2 канала
Расположение каналов : Front: L R
Частота : 48,0 КГц
Частота кадров : 31,250 кадров/сек (1536 spf)
Метод сжатия : С потерями
Размер потока : 109 Мбайт (10%)
Выравнивание : Разделение по промежуткам
Продолжительность промежутка : 40 мс. (1,00 видеокадр)
Время предзагрузки промежутка : 500 мс.

Аудио #2
Идентификатор : 2
Формат : AC-3
Формат/Информация : Audio Coding 3
Расширение режима : CM (complete main)
Параметр Endianness формата : Big
Идентификатор кодека : 2000
Продолжительность : 1 ч. 19 м.
Вид битрейта : Постоянный
Битрейт : 192 Кбит/сек
Каналы : 2 канала
Расположение каналов : Front: L R
Частота : 48,0 КГц
Частота кадров : 31,250 кадров/сек (1536 spf)
Метод сжатия : С потерями
Размер потока : 109 Мбайт (10%)
Выравнивание : Разделение по промежуткам
Продолжительность промежутка : 40 мс. (1,00 видеокадр)
Время предзагрузки промежутка : 500 мс.

pb.wtf



Скачать У героев не мерзнут уши через торрент http://s61.radikal.ru/i174/1710/67/f14a49bd0c2e.jpg Скачать фильм У героев не мерзнут уши через торрент бесплантно в хорошем качестве Описание: Два братца, Жан-Бернар и Пьер - холостяки. Оба находятся в постоянном поиске женщины, но неудачи подстерегают их на каждом шагу. ... 5 10 1
Info! Золотая раздача, скачанное не засчитывается.
Торрент: Зарегистрирован [2017-10-04 17:18] · скачан: 18 раз
Статус: √ проверено
Размер: 1.05 GB
Как cкачать? Как скачать У героев не мерзнут уши через торрент | qTorrent

28-11-2019 20:33  

Отключить всю рекламу на сайте

    Дорогой пользователь! Огромная просьба, поблагодарите релизера, оцените раздачу и оставьте свои комментарий, если Вы скачали У героев не мерзнут уши через торрент бесплатно! Внесите свою лепту в развитие PiratBit!
    Комментировать посты могут только пользователи прошедшие не сложную регистрацию
    Показать сообщения:    

    У героев не мерзнут уши через торрент
    Скачать бесплатно У героев не мерзнут уши
    У героев не мерзнут уши скачать торрент
    У героев не мерзнут уши смотреть онлайн
    Cкачать фильм У героев не мерзнут уши бесплатно
    У героев не мерзнут уши скачать торрент в хорошем качестве
    У героев не мерзнут уши смотреть онлайн бесплатно в хорошем качестве


    Вы не можете начинать темы
    Вы не можете отвечать на сообщения
    Вы не можете редактировать свои сообщения
    Вы не можете удалять свои сообщения
    Вы не можете голосовать в опросах
    Вы не можете прикреплять файлы к сообщениям
    Вы можете скачивать файлы