Ссылка на приватное зеркало нашего сайта всего за 1$. Внимание количество ограничено!!!

2 сезон

iTunes

1 сезон

1

2 сезон

2 сезон

iTunes

1 сезон

RePack

30

Ultimate

ВАЖНО

ИГРА 18+

pack

RePack

MK11
pack

Забери бонус

RePack

jed

!!Акция!!

Alien_Rage

RePack

fifa19

RePack

Assassins Creed: Odyssey

RePack

NEED FOR SPEED™ PAYBACK

4 сезон

9 сезон

Бесстыжие 9 сезон

Все сериалы

все сериалы на PB.wtf

RePack

FAR CRY 5
  

Лжец, Великий и Ужасный / The Wizard of Lies (Барри Левинсон) [2017, Драма, Криминал, Биография, BD Remux 1080p] MVO [Novamedia] pb.wtf

Лжец, Великий и Ужасный через торрент pb.wtf

Размер: 32.61 GB | Добавлен: 3 года 1 мес. назад | Торрент скачан:295 раз
Скачать  

04-10-2017 17:44 Лжец, Великий и Ужасный Скачать торрент  

Лжец, Великий и Ужасный / The Wizard of Lies
Год выпуска: 2017
Страна: США
Жанр: Драма, Криминал, Биография
Продолжительность: 02:12:42
Перевод: Профессиональный (многоголосый) | Novamedia (для канала HBO)
Субтитры: английские

Режиссер: Барри Левинсон

rating

В ролях:

Мишель Пфайффер, Роберт Де Ниро, Хэнк Азария, Кристен Коннолли, Алессандро Нивола, Келли АуКойн, Нэйтан Дарроу, Лили Рэйб, Майкл А. Гурджиан, Кэтрин Нардуччи

Описание:

История Берни Мэдоффа — бизнесмена, который построил крупнейшую в мире финансовую пирамиду и замаскировал её под инвестиционный фонд. Мэдофф был приговорен к 150 годам тюремного заключения, а его незаконная деятельность обернулась катастрофой для всей семьи.

Качество: BD Remux 1080p
Формат: MKV
Видео кодек: H.264
Аудио кодек: AC3

Видео: AVC/H.264, 1920x1080, ~31.4 Mbps, 23.976 fps
Аудио#1: AC3, 6 ch, ~384 Kbps - Русский
Аудио#2: DTS-HD MA, 6 ch, ~1509 kbps - Английский
скриншот   скриншот   скриншот   скриншот  

Общее
Уникальный идентификатор : 242193507744574762220908506337710421488 (0xB634C5DC20EBCDCFB4814777DF9BB5F0)
Полное имя : The Wizard of Lies.2017.BDRemux.mkv
Формат : Matroska
Версия формата : Version 4 / Version 2
Размер файла : 32,6 Гбайт
Продолжительность : 2 ч. 12 м.
Режим общего битрейта : Переменный
Общий поток : 35,2 Мбит/сек
Дата кодирования : UTC 2017-10-04 16:28:24
Программа кодирования : mkvmerge v15.0.0 ('Duel with the Devil') 64-bit
Библиотека кодирования : libebml v1.3.5 + libmatroska v1.4.5

Видео
Идентификатор : 1
Формат : AVC
Формат/Информация : Advanced Video Codec
Профиль формата : High@L4.1
Настройки формата : CABAC / 4 Ref Frames
Параметр CABAC формата : Да
Параметр RefFrames формата : 4 кадра
Идентификатор кодека : V_MPEG4/ISO/AVC
Продолжительность : 2 ч. 12 м.
Вид битрейта : Переменный
Битрейт : 31,4 Мбит/сек
Максимальный битрейт : 35,0 Мбит/сек
Ширина : 1920 пикселей
Высота : 1080 пикселей
Соотношение сторон : 16:9
Режим частоты кадров : Постоянный
Частота кадров : 23,976 (24000/1001) кадра/сек
Цветовое пространство : YUV
Субдискретизация насыщенности : 4:2:0
Битовая глубина : 8 бит
Тип развёртки : Прогрессивная
Бит/(Пиксели*Кадры) : 0.632
Размер потока : 29,1 Гбайт (89%)
Язык : English
Default : Да
Forced : Нет

Аудио #1
Идентификатор : 2
Формат : AC-3
Формат/Информация : Audio Coding 3
Параметр Endianness формата : Big
Идентификатор кодека : A_AC3
Продолжительность : 2 ч. 12 м.
Вид битрейта : Постоянный
Битрейт : 384 Кбит/сек
Каналы : 6 каналов
Расположение каналов : Front: L C R, Side: L R, LFE
Частота : 48,0 КГц
Частота кадров : 31,250 кадров/сек (1536 SPF)
Битовая глубина : 16 бит
Метод сжатия : С потерями
Размер потока : 364 Мбайт (1%)
Заголовок : MVO (Novamedia)
Язык : Russian
ServiceKind : Complete Main
Default : Да
Forced : Нет

Аудио #2
Идентификатор : 3
Формат : DTS
Формат/Информация : Digital Theater Systems
Профиль формата : MA / Core
Режим : 16
Параметр Endianness формата : Big
Идентификатор кодека : A_DTS
Продолжительность : 2 ч. 12 м.
Вид битрейта : Переменный / Постоянный
Битрейт : 3353 Кбит/сек / 1509 Кбит/сек
Каналы : 6 каналов
Расположение каналов : Front: L C R, Side: L R, LFE
Частота : 48,0 КГц
Частота кадров : 93,750 кадра/сек (512 SPF)
Битовая глубина : 24 бит
Метод сжатия : Без потерь / Lossy
Размер потока : 3,11 Гбайт (10%)
Язык : English
Default : Нет
Forced : Нет

Текст #1
Идентификатор : 4
Формат : UTF-8
Идентификатор кодека : S_TEXT/UTF8
Идентификатор кодека/Информация : UTF-8 Plain Text
Продолжительность : 2 ч. 7 м.
Битрейт : 91 бит/сек
ElementCount : 2219
Размер потока : 85,8 Кбайт (0%)
Заголовок : Full
Язык : English
Default : Нет
Forced : Нет

Текст #2
Идентификатор : 5
Формат : UTF-8
Идентификатор кодека : S_TEXT/UTF8
Идентификатор кодека/Информация : UTF-8 Plain Text
Продолжительность : 2 ч. 8 м.
Битрейт : 103 бит/сек
ElementCount : 2689
Размер потока : 98,0 Кбайт (0%)
Заголовок : SDH
Язык : English
Default : Нет
Forced : Нет

Меню
00:00:00.000 : en:BERNARD L. MADOFF
00:12:36.255 : en:HE WAS BRILLIANT
00:22:45.155 : en:10 MILLION DOLLAR BOND
00:30:14.730 : en:A LAVISH HOME
00:39:44.090 : en:$65 BILLION PONZI SCHEME
00:48:29.490 : en:OUR LAST NIGHT ON EARTH
01:02:36.211 : en:GAME OVER
01:14:46.607 : en:HOW IS WALL STREET PAPA?
01:24:02.412 : en:PLEAD GUILTY
01:33:22.972 : en:MAXIMUM SECURITY
01:41:14.735 : en:I'M SORRY
01:49:13.172 : en:A BIG STATEMENT
01:57:35.632 : en:ANDREW MADOFF DIED
02:08:52.141 : en:CREDITS

pb.wtf



Скачать Лжец, Великий и Ужасный через торрент http://i4.imageban.ru/out/2017/09/30/e3e40c623f3f088a3fec9a4f649d6a79.jpg Скачать фильм Лжец, Великий и Ужасный через торрент бесплантно в хорошем качестве Описание: История Берни Мэдоффа — бизнесмена, который построил крупнейшую в мире финансовую пирамиду и замаскировал её под инвестиционный ... 9.2 10 11
Info! Золотая раздача, скачанное не засчитывается.
Торрент: Зарегистрирован [2017-10-04 17:44] · скачан: 295 раз
Статус: √ проверено
Размер: 32.61 GB
Как cкачать? Как скачать Лжец, Великий и Ужасный через торрент | qTorrent

% Раздел Тема Автор DL S | L
T Релизы по Парсеру [Игры, Сериалы и Фильмы и другое...] [ 4.79 GB ] Лжец Великий и Ужасный / The Wizard of Lies [2017 биография WEB-DL 1080p ] [Line] Dusster Скачать
1 | 0
T Релизы по Парсеру [Игры, Сериалы и Фильмы и другое...] [ 2.05 GB ] Лжец Великий и Ужасный / The Wizard of Lies [2017 биография HDRip] [MVO] [Line] killermax2013 Скачать
2 | 0
Фильмы 2017 [DVDrip, WEB-DLRip, HDrip] (DUB, MVO) [ 2.3 GB ] Лжец Великий и Ужасный / The Wizard of Lies [2017 биография BDRip-AVC] MVO [Novamedia] bober100 Скачать
1 | 0

28-11-2019 20:33  

Отключить всю рекламу на сайте

29-10-2017 11:55 Лжец, Великий и Ужасный Скачать торрент  

нудная мутотень. можно было уложиться в 20 минут.pb.wtf



    Дорогой пользователь! Огромная просьба, поблагодарите релизера, оцените раздачу и оставьте свои комментарий, если Вы скачали Лжец, Великий и Ужасный через торрент бесплатно! Внесите свою лепту в развитие PiratBit!
    Комментировать посты могут только пользователи прошедшие не сложную регистрацию
    Показать сообщения:    

    Лжец, Великий и Ужасный через торрент
    Скачать бесплатно Лжец, Великий и Ужасный
    Лжец, Великий и Ужасный скачать торрент
    Лжец, Великий и Ужасный смотреть онлайн
    Cкачать фильм Лжец, Великий и Ужасный бесплатно
    Лжец, Великий и Ужасный скачать торрент в хорошем качестве
    Лжец, Великий и Ужасный смотреть онлайн бесплатно в хорошем качестве


    Вы не можете начинать темы
    Вы не можете отвечать на сообщения
    Вы не можете редактировать свои сообщения
    Вы не можете удалять свои сообщения
    Вы не можете голосовать в опросах
    Вы не можете прикреплять файлы к сообщениям
    Вы можете скачивать файлы