2 сезон

iTunes

MVO

1

2 сезон

iTunes

iTunes

1 сезон

RePack

30

Новинка

ВАЖНО

ИГРА 18+

pack

RePack

MK11
pack

Легкие деньги

RePack

jed

RePack

fifa19

RePack

RDR2

RePack

NEED FOR SPEED™ PAYBACK

4 сезон

9 сезон

Бесстыжие 9 сезон

Все сериалы

все сериалы на PB.wtf

RePack

FAR CRY 5

Anonymous, добрый вечер, мы не успеваем собрать деньги на оплату серверов за декабрь и январь, помогите нам пожалуйста в это трудное время. В качестве благодарности мы отключим Вам всю рекламу на сайте (укажите свой ник в строку Ваше имя)!

×
  
Magnet ссылка

Малыш на драйве / Baby Driver (Эдгар Райт) [2017, Триллер, криминал, музыка, BDRip-AVC] [iTunes] DUB+MVO pb.wtf

Малыш на драйве через торрент pb.wtf

Размер: 3.08 GB | Добавлен: 3 года 3 мес. назад | Торрент скачан:168 раз
Скачать  

04-10-2017 20:26 Малыш на драйве Скачать торрент  

Малыш на драйве / Baby Driver«Сколько треков нужно для хорошего ограбления?»Год выпуска: 2017
Страна: Великобритания , США
Жанр: Триллер, криминал, музыка
Продолжительность: 01:52:40
Перевод: Дублированный | iTunes, Любительский (многоголосый, закадровый) [Paradox & Omskbird records]
Субтитры: Русские, Английские
Реклама: Отсутствует

Режиссер: Эдгар Райт

rating

В ролях:

Энсел Элгорт, Джон Бернтал, Джон Хэмм, Эйса Гонсалес, Лили Джеймс, Морган Браун, Кевин Спейси, С.Дж. Джонс

Описание:

Юный водитель по кличке «Малыш» (Энсел Элгорт) работает на профессиональных грабителей банков. В один момент он внезапно оказывается втянутым в одно из ограблений, которое, к его глубокому сожалению, выходит из-под контроля, и все начинает идти совсем не по плану. Американский боевик британского режиссера Эдгара Райта, известного по своей работе над фильмом «Зомби по имени Шон», сочетает в себе не только жанр боевика, но и элементы комедии, и даже триллера. Классический сюжет о неудачном ограблении вероятнее всего будет интересен поклонникам фильмов об охотниках за легкой наживой.

Качество: BDRip-AVC
Формат: MKV
Видео кодек: H.264
Аудио кодек: AC3

Видео: 1024x428 (16:9), 23.976 fps, x264 ~2636 kbps avg, 0.251 bit/pixel
Аудио#1: 48 kHz, AC3 Dolby Digital, 3/2 (L,C,R,l,r) + LFE ch, ~384.00 kbps avg | RUS [iTunes]
Аудио#2: 48 kHz, AC3 Dolby Digital, 2 (L,R) ch, ~384.00 kbps avg | RUS [Paradox & Omskbird records]
Аудио#3: 48 kHz, AC3 Dolby Digital, 3/2 (L,C,R,l,r) + LFE ch, ~448.00 kbps avg | ENG
скриншот   скриншот   скриншот   скриншот   скриншот   скриншот  

Общее
Уникальный идентификатор : 219783602297747221276671045131916330189 (0xA558C83761A19138A412C4AE1710C4CD)
Полное имя : E:OlLanDGroupBaby.Driver.2017.BDRip(AVC).OlLanDGroup.mkv
Формат : Matroska
Версия формата : Version 2
Размер файла : 3,08 Гбайт
Продолжительность : 1 ч. 52 м.
Общий поток : 3915 Кбит/сек
Название фильма : Baby.Driver.2017 #TorpedoUK#
Дата кодирования : UTC 2017-10-04 19:24:54
Программа кодирования : mkvmerge v7.8.0 ('River Man') 32bit built on Apr 3 2015 12:11:22
Библиотека кодирования : libebml v1.3.1 + libmatroska v1.4.2

Видео
Идентификатор : 1
Формат : AVC
Формат/Информация : Advanced Video Codec
Профиль формата : High@L4.1
Параметр CABAC формата : Да
Параметр ReFrames формата : 10 кадров
Идентификатор кодека : V_MPEG4/ISO/AVC
Продолжительность : 1 ч. 52 м.
Битрейт : 2636 Кбит/сек
Ширина : 1024 пикселя
Высота : 428 пикселей
Соотношение сторон : 2,40:1
Режим частоты кадров : Постоянный
Частота кадров : 23,976 (24000/1001) кадра/сек
Цветовое пространство : YUV
Субдискретизация насыщенности : 4:2:0
Битовая глубина : 8 бит
Тип развёртки : Прогрессивная
Бит/(Пиксели*Кадры) : 0.251
Размер потока : 2,06 Гбайт (67%)
Библиотека кодирования : x264 core 146 r2538 121396c
Настройки программы : cabac=1 / ref=10 / deblock=1:-3:-3 / analyse=0x3:0x133 / me=umh / subme=11 / psy=1 / psy_rd=1.00:0.07 / mixed_ref=1 / me_range=48 / chroma_me=1 / trellis=2 / 8x8dct=1 / cqm=0 / deadzone=21,11 / fast_pskip=0 / chroma_qp_offset=-3 / threads=6 / lookahead_threads=1 / sliced_threads=0 / nr=0 / decimate=0 / interlaced=0 / bluray_compat=0 / constrained_intra=0 / bframes=10 / b_pyramid=2 / b_adapt=2 / b_bias=0 / direct=3 / weightb=1 / open_gop=0 / weightp=2 / keyint=240 / keyint_min=23 / scenecut=40 / intra_refresh=0 / rc_lookahead=40 / rc=2pass / mbtree=0 / bitrate=2636 / ratetol=1.0 / qcomp=0.60 / qpmin=0 / qpmax=69 / qpstep=4 / cplxblur=20.0 / qblur=0.5 / vbv_maxrate=50000 / vbv_bufsize=62500 / nal_hrd=none / filler=0 / ip_ratio=1.40 / pb_ratio=1.30 / aq=1:1.00
Язык : English
Default : Да
Forced : Нет

Аудио #1
Идентификатор : 2
Формат : AC-3
Формат/Информация : Audio Coding 3
Расширение режима : CM (complete main)
Параметр Endianness формата : Big
Идентификатор кодека : A_AC3
Продолжительность : 1 ч. 52 м.
Вид битрейта : Постоянный
Битрейт : 384 Кбит/сек
Каналы : 6 каналов
Расположение каналов : Front: L C R, Side: L R, LFE
Частота : 48,0 КГц
Частота кадров : 31,250 кадров/сек (1536 spf)
Битовая глубина : 16 бит
Метод сжатия : С потерями
Размер потока : 309 Мбайт (10%)
Заголовок : iTunes
Язык : Russian
Default : Да
Forced : Нет

Аудио #2
Идентификатор : 3
Формат : AC-3
Формат/Информация : Audio Coding 3
Расширение режима : CM (complete main)
Параметр Endianness формата : Big
Идентификатор кодека : A_AC3
Продолжительность : 1 ч. 52 м.
Вид битрейта : Постоянный
Битрейт : 384 Кбит/сек
Каналы : 2 канала
Расположение каналов : Front: L R
Частота : 48,0 КГц
Частота кадров : 31,250 кадров/сек (1536 spf)
Битовая глубина : 16 бит
Метод сжатия : С потерями
Размер потока : 309 Мбайт (10%)
Заголовок : Paradox & Omskbird records
Язык : Russian
Default : Нет
Forced : Нет

Аудио #3
Идентификатор : 4
Формат : AC-3
Формат/Информация : Audio Coding 3
Расширение режима : CM (complete main)
Параметр Endianness формата : Big
Идентификатор кодека : A_AC3
Продолжительность : 1 ч. 52 м.
Вид битрейта : Постоянный
Битрейт : 448 Кбит/сек
Каналы : 6 каналов
Расположение каналов : Front: L C R, Side: L R, LFE
Частота : 48,0 КГц
Частота кадров : 31,250 кадров/сек (1536 spf)
Битовая глубина : 16 бит
Метод сжатия : С потерями
Размер потока : 361 Мбайт (11%)
Заголовок : Original
Язык : English
Default : Нет
Forced : Нет

Текст #1
Идентификатор : 5
Формат : UTF-8
Идентификатор кодека : S_TEXT/UTF8
Идентификатор кодека/Информация : UTF-8 Plain Text
Заголовок : Forced
Язык : Russian
Default : Да
Forced : Нет

Текст #2
Идентификатор : 6
Формат : UTF-8
Идентификатор кодека : S_TEXT/UTF8
Идентификатор кодека/Информация : UTF-8 Plain Text
Заголовок : Full
Язык : Russian
Default : Нет
Forced : Нет

Текст #3
Идентификатор : 7
Формат : UTF-8
Идентификатор кодека : S_TEXT/UTF8
Идентификатор кодека/Информация : UTF-8 Plain Text
Заголовок : SDH
Язык : English
Default : Нет
Forced : Нет

Текст #4
Идентификатор : 8
Формат : UTF-8
Идентификатор кодека : S_TEXT/UTF8
Идентификатор кодека/Информация : UTF-8 Plain Text
Заголовок : Full
Язык : English
Default : Нет
Forced : Нет

Меню
00:00:00.000 : en:00:00:00.000
00:09:11.050 : en:00:09:11.050
00:13:30.476 : en:00:13:30.476
00:20:58.174 : en:00:20:58.174
00:25:17.599 : en:00:25:17.599
00:33:07.903 : en:00:33:07.903
00:43:43.246 : en:00:43:43.246
00:48:15.643 : en:00:48:15.643
00:53:39.550 : en:00:53:39.550
00:58:51.903 : en:00:58:51.903
01:05:23.545 : en:01:05:23.545
01:11:34.081 : en:01:11:34.081
01:19:17.002 : en:01:19:17.002
01:30:30.675 : en:01:30:30.675
01:38:04.170 : en:01:38:04.170
01:43:30.413 : en:01:43:30.413

pb.wtf



Скачать Малыш на драйве через торрент http://s42.radikal.ru/i096/1710/94/1270cff08f73.jpg Скачать фильм Малыш на драйве через торрент бесплантно в хорошем качестве Описание: Юный водитель по кличке «Малыш» (Энсел Элгорт) работает на профессиональных грабителей банков. В один момент он внезапно ... 9.4 10 9
Торрент: Зарегистрирован [2017-10-04 20:26] · скачан: 168 раз
Статус: √ проверено
Размер: 3.08 GB
Как cкачать? Как скачать Малыш на драйве через торрент | UTorrent

% Раздел Тема Автор DL S | L
Фильмы (Blu-ray, BD-Remux, HDDVD) [ 22.62 GB ] Малыш на драйве / Baby Driver [2017 музыка BD Remux 1080p] AVO [М.Чадов] +MVO [Paradox & Omskbird] +DUB [] bober100 Скачать
1 | 0
Фильмы [HD 720p, 1080p] (Хороший звук DUB, MVO) [ 5 GB ] Малыш на драйве / Baby Driver [2017 музыка BDRip 720p] DUB+MVO [] bober100 Скачать
1 | 0
Фильмы [HD 720p, 1080p] (Хороший звук DUB, MVO) [ 9.72 GB ] Малыш на драйве / Baby Driver [2017 музыка BDRip 1080p] DUB+MVO [] bober100 Скачать
1 | 0

28-11-2019 20:33  

Отключить всю рекламу на сайте

10-11-2017 21:45 Малыш на драйве Скачать торрент  

Реально, очень крутой фильм, я когда качал не ожидал своего восторга!pb.wtf



    Дорогой пользователь! Огромная просьба, поблагодарите релизера, оцените раздачу и оставьте свои комментарий, если Вы скачали Малыш на драйве через торрент бесплатно! Внесите свою лепту в развитие PiratBit!
    Комментировать посты могут только пользователи прошедшие не сложную регистрацию
    Показать сообщения:    

    Малыш на драйве через торрент
    Скачать бесплатно Малыш на драйве
    Малыш на драйве скачать торрент
    Малыш на драйве смотреть онлайн
    Cкачать фильм Малыш на драйве бесплатно
    Малыш на драйве скачать торрент в хорошем качестве
    Малыш на драйве смотреть онлайн бесплатно в хорошем качестве


    Вы не можете начинать темы
    Вы не можете отвечать на сообщения
    Вы не можете редактировать свои сообщения
    Вы не можете удалять свои сообщения
    Вы не можете голосовать в опросах
    Вы не можете прикреплять файлы к сообщениям
    Вы можете скачивать файлы