Ссылка на приватное зеркало нашего сайта всего за 1$. Внимание количество ограничено!!!

2 сезон

iTunes

1 сезон

1

2 сезон

2 сезон

iTunes

1 сезон

RePack

30

Ultimate

ВАЖНО

ИГРА 18+

pack

RePack

MK11
pack

Забери бонус

RePack

jed

!!Акция!!

Alien_Rage

RePack

fifa19

RePack

Assassins Creed: Odyssey

RePack

NEED FOR SPEED™ PAYBACK

4 сезон

9 сезон

Бесстыжие 9 сезон

Все сериалы

все сериалы на PB.wtf

RePack

FAR CRY 5
  

Кевин подождет / Kevin Can Wait / Сезон: 2 / Серии 1-24 из 24 (Энди Фикмен / Andy Fickman) [2017, США, комедия, WEBRip-AVC] MVO [BaibaKo] pb.wtf

Кевин подождет через торрент pb.wtf

Качают: 1 [ 0 KB/s ]
Размер: 9.02 GB | Добавлен: 2 года 6 мес. назад | Торрент скачан:5 раз
Скачать  

04-10-2017 23:58 Кевин подождет Скачать торрент  

Кевин подождет / Kevin Can Wait
«И снова Привет Америка»


  • Год выпуска: 2017
  • Страна: США
  • Жанр: комедия
  • Продолжительность: ~ 00:20:00 (Серия)
  • Перевод: Профессиональный многоголосый [BaibaKo]
  • Режиссер: Энди Фикмен / Andy Fickman
  • В ролях:

    Кевин Джеймс (Kevin), Мари-Чарльз Джонс (Sara), Эринн Хэйс (Donna), Тейлор Спрейтлер (Kendra), Райан Картрайт (Chale), Гари Валентайн (Kyle), Ленни Венито (Duffy), Леонард Эрл Хауз (Goody), Джеймс ДиДжакомо (Jack), Карлос Аласраки (Slawinski), Reid Prebenda (Todd), Максин Прескотт (Elderly Woman)


  • Только что ушедший в отставку полицейский Кевин Гейбл готовится к новой жизни, в которой он сможет больше времени уделять своей жене и детям. Однако оказывается, что дома его ждут задания куда сложнее, чем те, на которые ему приходилось выезжать по службе.
  • Рейтинг:
    rating
  • Качество: WEBRip-AVC
  • Формат: :MPEG-4
  • Видео кодек: AVC
  • Аудио кодек: AC3
  • Видео: 1828 Кбит/сек, 1024*576 (16:9), в 23,976 (24000/1001) кадра/сек, AVC
  • Аудио №1: русский 384 Кбит/сек, 48,0 КГц, 16 бит, 6 каналов, AC-3 |[BaibaKo]|
  • Аудио №2: английский 384 Кбит/сек, 48,0 КГц, 16 бит, 6 каналов, AC-3
  • Релиз от: GEKADOL

    Внимание! Раздача ведётся путём добавления новых серий; при каждом добавлении создаётся новый торрент. Чтобы начать докачку новой серии, пользователям необходимо сделать следующее:
    (1) остановить скачивание,
    (2) удалить старый торрент у себя из клиента (старые серии удалять не надо),
    (3) скачать новый торрент и запустить его у себя в клиенте вместо старого, при этом указать клиенту путь в старую папку куда и должно происходить скачивание новых серий.
    Ваш клиент при этом должен произвести хеширование (проверку) старой папки (если не производит сам - помогите ему сделать это), и будет докачивать только те серии которых у вас ещё нет. Старые серии при этом не удаляются, а продолжают раздаваться!
    Eсли вы уже удалили старые серии, то предотвратить повторную закачку старых серий можно, отжав галочку в соответствующих местах при запуске нового торрента. По возможности, желательно не удалять старые серии как можно дольше чтобы релизёр не столько продолжал раздавать старые серии, а смог сконцентрироваться на новых.
    Общее
    Полное имя : G:\Кевин подождёт (Kevin Can Wait 2)\Kevin.Can.Wait.s02e01.WEBRip-AVC.Rus.Eng.BaibaKo.tv.mp4
    Формат : MPEG-4
    Профиль формата : Base Media
    Идентификатор кодека : isom (isom/iso2/avc1/mp41)
    Размер файла : 388 Мбайт
    Продолжительность : 20 м. 52 с.
    Общий поток : 2601 Кбит/сек
    Программа кодирования : XviD4PSP 7.0.408 DAILY
    HDVideo : Yes
    encoding_info : MATROSKA / WEBM > MP4 Произвольный / H264 > X264 CBR 2000kbps HQ / AC3 > AC3 CBR 384kbps / AC3 > AC3 CBR 384kbps

    Видео
    Идентификатор : 1
    Формат : AVC
    Формат/Информация : Advanced Video Codec
    Профиль формата : High@L3.1
    Параметр CABAC формата : Да
    Параметр RefFrames формата : 4 кадра
    Идентификатор кодека : avc1
    Идентификатор кодека/Информация : Advanced Video Coding
    Продолжительность : 20 м. 51 с.
    Битрейт : 1828 Кбит/сек
    Номинальный битрейт : 2000 Кбит/сек
    Ширина : 1024 пикселя
    Высота : 576 пикселей
    Соотношение сторон : 16:9
    Режим частоты кадров : Постоянный
    Частота кадров : 23,976 (24000/1001) кадра/сек
    Цветовое пространство : YUV
    Субдискретизация насыщенности : 4:2:0
    Битовая глубина : 8 бит
    Тип развёртки : Прогрессивная
    Бит/(Пиксели*Кадры) : 0.129
    Размер потока : 273 Мбайт (70%)
    Библиотека кодирования : x264 core 152 r2851M ba24899
    Настройки программы : cabac=1 / ref=3 / deblock=1:-1:-1 / analyse=0x3:0x133 / me=hex / subme=7 / psy=1 / psy_rd=1.00:0.20 / mixed_ref=1 / me_range=16 / chroma_me=1 / trellis=1 / 8x8dct=1 / cqm=0 / deadzone=21,11 / fast_pskip=1 / chroma_qp_offset=-3 / threads=5 / lookahead_threads=1 / sliced_threads=0 / nr=0 / decimate=1 / interlaced=0 / bluray_compat=0 / constrained_intra=0 / bframes=3 / b_pyramid=2 / b_adapt=2 / b_bias=0 / direct=3 / weightb=1 / open_gop=0 / weightp=2 / keyint=230 / keyint_min=23 / scenecut=40 / intra_refresh=0 / rc_lookahead=40 / rc=cbr / mbtree=1 / bitrate=2000 / ratetol=1.0 / qcomp=0.60 / qpmin=0 / qpmax=69 / qpstep=4 / vbv_maxrate=2000 / vbv_bufsize=1428 / nal_hrd=none / filler=0 / ip_ratio=1.40 / aq=1:1.00

    Аудио #1
    Идентификатор : 2
    Формат : AC-3
    Формат/Информация : Audio Coding 3
    Параметр Endianness формата : Big
    Идентификатор кодека : ac-3
    Продолжительность : 20 м. 52 с.
    Вид битрейта : Постоянный
    Битрейт : 384 Кбит/сек
    Каналы : 6 каналов
    Расположение каналов : Front: L C R, Side: L R, LFE
    Частота : 48,0 КГц
    Частота кадров : 31,250 кадров/сек (1536 SPF)
    Битовая глубина : 16 бит
    Метод сжатия : С потерями
    Размер потока : 57,3 Мбайт (15%)
    Язык : Russian
    ServiceKind/String : Complete Main
    Default : Да
    AlternateGroup/String : 1

    Аудио #2
    Идентификатор : 3
    Формат : AC-3
    Формат/Информация : Audio Coding 3
    Параметр Endianness формата : Big
    Идентификатор кодека : ac-3
    Продолжительность : 20 м. 52 с.
    Вид битрейта : Постоянный
    Битрейт : 384 Кбит/сек
    Каналы : 6 каналов
    Расположение каналов : Front: L C R, Side: L R, LFE
    Частота : 48,0 КГц
    Частота кадров : 31,250 кадров/сек (1536 SPF)
    Битовая глубина : 16 бит
    Метод сжатия : С потерями
    Размер потока : 57,3 Мбайт (15%)
    Язык : English
    ServiceKind/String : Complete Main
    Default : Нет
    AlternateGroup/String : 1





    Скриншоты:
    скриншот   скриншот   скриншот   скриншот   скриншот   скриншот   скриншот  
    скриншот  

    Раздача ведётся путём добавления новых серий. Добавлена 24 серия (09.05.2018).Просьба перекачать торрент файл.

    pb.wtf



  • Скачать Кевин подождет через торрент http://pic1.kartinco.top/images/11/ph7wv.jpg Скачать фильм Кевин подождет через торрент бесплантно в хорошем качестве qw.png Только что ушедший в отставку полицейский Кевин Гейбл готовится к новой жизни, в которой он сможет больше времени уделять своей ... 7 10 3
    Info! Золотая раздача, скачанное не засчитывается.
    Торрент: Зарегистрирован [2018-05-09 01:07] · скачан: 5 раз
    Статус: √ проверено
    Размер: 9.02 GB
    Как cкачать? Как скачать Кевин подождет через торрент | qTorrent

    % Раздел Тема Автор DL S | L
    Зарубежные сериалы [ 9.42 GB ] Кевин подождет / Kevin Can Wait / Сезон: 2 / Серии: 1-24 из 24 [2017 HDTVRip 720p] DVO [SunshineStudio] bober100 Скачать
    1 | 0
    Зарубежные сериалы [ 5.98 GB ] Кевин подождет / Kevin Can Wait / Сезон: 2 / Серии: 1-24 из 24 [2017 HDTVRip] DVO [SunshineStudio] bober100 Скачать
    1 | 0


    Последний раз редактировалось: GEKADOL (2018-05-09 01:07), всего редактировалось 33 раз(а)

    28-11-2019 20:33  

    Отключить всю рекламу на сайте

    12-10-2017 03:34 Кевин подождет Скачать торрент  

    Спасибо!pb.wtf



    12-10-2017 17:22 Кевин подождет Скачать торрент  

    А где раздача ? pb.wtf



    13-10-2017 14:24 Кевин подождет Скачать торрент  

    Ам, как-то неожиданно пропала актриса Эринн Хэйс. По фильму прошел год, а семейство ведет себя так, как будто ее и не было... pb.wtf



    25-10-2017 04:28 Кевин подождет Скачать торрент  

    =)pb.wtf



    16-11-2017 03:47 Кевин подождет Скачать торрент  

    Shelemeh писал(а):

    =)

    pb.wtf



    16-11-2017 04:34 Кевин подождет Скачать торрент  

    Спасибо. =)pb.wtf



    20-12-2017 02:24 Кевин подождет Скачать торрент  

    Shelemeh писал(а):

    Спасибо. =)

    pb.wtf



      Дорогой пользователь! Огромная просьба, поблагодарите релизера, оцените раздачу и оставьте свои комментарий, если Вы скачали Кевин подождет через торрент бесплатно! Внесите свою лепту в развитие PiratBit!
      Комментировать посты могут только пользователи прошедшие не сложную регистрацию
      Показать сообщения:    

      Кевин подождет через торрент
      Скачать бесплатно Кевин подождет
      Кевин подождет скачать торрент
      Кевин подождет смотреть онлайн
      Cкачать фильм Кевин подождет бесплатно
      Кевин подождет скачать торрент в хорошем качестве
      Кевин подождет смотреть онлайн бесплатно в хорошем качестве


      Вы не можете начинать темы
      Вы не можете отвечать на сообщения
      Вы не можете редактировать свои сообщения
      Вы не можете удалять свои сообщения
      Вы не можете голосовать в опросах
      Вы не можете прикреплять файлы к сообщениям
      Вы можете скачивать файлы