2 сезон

iTunes

MVO

1

2 сезон

iTunes

iTunes

1 сезон

RePack

30

Ultimate

ВАЖНО

ИГРА 18+

pack

RePack

MK11
pack

Легкие деньги

RePack

jed

RePack

fifa19

RePack

RDR2

RePack

NEED FOR SPEED™ PAYBACK

4 сезон

9 сезон

Бесстыжие 9 сезон

Все сериалы

все сериалы на PB.wtf

RePack

FAR CRY 5

Anonymous, доброй ночи, мы не успеваем собрать деньги на оплату серверов за декабрь и январь, помогите нам пожалуйста в это трудное время. В качестве благодарности мы отключим Вам всю рекламу на сайте (укажите свой ник в строку Ваше имя)!

×
  
Magnet ссылка

Секс-Трип / The Sex Trip (Энтони Дж. Коэн) [2017 г., фэнтези, комедия, WEB-DLRip, Профессиональный (полное дублирование) / iTunes] pb.wtf

Секс-Трип через торрент pb.wtf

Размер: 1.37 GB | Добавлен: 3 года 3 мес. назад | Торрент скачан:1403 раза
Скачать  

05-10-2017 03:05 Секс-Трип Скачать торрент  

Секс-Трип / The Sex Trip
Год выпуска: 2017
Страна: США
Жанр: фэнтези, комедия
Продолжительность: 01:21:59
Перевод: Профессиональный (полное дублирование)/ iTunes
Субтитры: нет

Режиссер: Энтони Дж. Коэн

rating

В ролях: Джейд Рэмси, Луис Мэндилор, Марк Крамптон, Шарлотта Эллен Прайс, Рэйчел Бритаг, Наташа Бласик, Ребекка Грант, Джим Хэнкс, Дэн Нир, Эштон Суинфорд

Описание: Всего себя красавчик Эдди Гринлиф посвятил искусству соблазнения женщин. Эдди ведёт тренинги, пишет книги, раздаёт интервью и каждый божий день применяет свои теории на практике, укладывая в свою постель самых привлекательных представительниц прекрасного пола. Однако такая озабоченная-беззаботная жизнь просто не могла длиться вечно и сама судьба в виде уродливой ведьмы наказала Эдди. Как-то раз, направляясь на вечерику, Эдди повстречал старуху, которая потребовала его поцелуй.

Качество: WEB-DLRip
Формат: AVI
Видео кодек: XviD
Аудио кодек: AC3
Видео: XviD,720x304, 23.976 fps, 1994 Кбит/с
Аудио#1: AC3,384 kb/s, 6 ch, 48.0 KHz

Дополнительно: Рекламы нет
скриншот   скриншот   скриншот   скриншот  

General
Complete name : H:\релизы.торрентфайл\Sekas.Treep.2O17.D.WEB-DLRip.14OOMB.avi
Format : AVI
Format/Info : Audio Video Interleave
File size : 1.37 GiB
Duration : 1h 21mn
Overall bit rate : 2 387 Kbps
Writing application : VirtualDubMod 1.5.10.2 (build 2540/release)
Writing library : VirtualDubMod build 2540/release

Video
ID : 0
Format : MPEG-4 Visual
Format profile : Advanced Simple@L5
Format settings, BVOP : 2
Format settings, QPel : No
Format settings, GMC : No warppoints
Format settings, Matrix : Default (MPEG)
Codec ID : XVID
Codec ID/Hint : XviD
Duration : 1h 21mn
Bit rate : 1 994 Kbps
Width : 720 pixels
Height : 304 pixels
Display aspect ratio : 2.35:1
Frame rate : 24.000 fps
Color space : YUV
Chroma subsampling : 4:2:0
Bit depth : 8 bits
Scan type : Progressive
Compression mode : Lossy
Bits/(Pixel*Frame) : 0.380
Stream size : 1.14 GiB (84%)
Writing library : XviD 1.2.1 (UTC 2008-12-04)

Audio
ID : 1
Format : AC-3
Format/Info : Audio Coding 3
Mode extension : CM (complete main)
Format settings, Endianness : Big
Codec ID : 2000
Duration : 1h 21mn
Bit rate mode : Constant
Bit rate : 384 Kbps
Channel(s) : 6 channels
Channel positions : Front: L C R, Side: L R, LFE
Sampling rate : 48.0 KHz
Bit depth : 16 bits
Compression mode : Lossy
Stream size : 225 MiB (16%)
Alignment : Split accross interleaves
Interleave, duration : 42 ms (1.00 video frame)
Interleave, preload duration : 500 ms

pb.wtf



Скачать Секс-Трип через торрент http://i89.fastpic.ru/big/2017/0916/c1/106679eec5ab69fd89b83973cc1148c1.png Скачать фильм Секс-Трип через торрент бесплантно в хорошем качестве Описание: Всего себя красавчик Эдди Гринлиф посвятил искусству соблазнения женщин. Эдди ведёт тренинги, пишет книги, раздаёт интервью и ... 9.5 10 24
Info! Золотая раздача, скачанное не засчитывается.
Торрент: Зарегистрирован [2017-10-05 03:05] · скачан: 1 403 раз
Статус: √ проверено
Размер: 1.37 GB
Как cкачать? Как скачать Секс-Трип через торрент | UTorrent

% Раздел Тема Автор DL S | L
T Релизы по Парсеру [Игры, Сериалы и Фильмы и другое...] [ 1.46 GB ] Секс-Трип / The Sex Trip [2017 WEB-DLRip-AVC] bober100 Скачать
1 | 0
Фильмы (WEB-DL 720p, 1080p) [ 2.86 GB ] Секс-Трип / The Sex Trip [2017 WEB-DL 1080p] bober100 Скачать
1 | 0
Фильмы (WEB-DL 720p, 1080p) [ 2.58 GB ] Секс-Трип / The Sex Trip [2017 WEB-DL 720p] bober100 Скачать
1 | 0


Последний раз редактировалось: oleg8 (2017-10-05 03:15), всего редактировалось 1 раз

28-11-2019 20:33  

Отключить всю рекламу на сайте

05-10-2017 05:50 Секс-Трип Скачать торрент  

Я бы посоветовал в оформлении раздачи к фамилии режиссёра всё же добавить недостающую букву "Н". Режиссер: Энтони Дж. Коэнpb.wtf
K-Lexx- писал(а):

Исправлено.



05-10-2017 17:23 Секс-Трип Скачать торрент  

Так часто бывает.Сначала SEX-потом Trip.pb.wtf



05-10-2017 18:59 Секс-Трип Скачать торрент  

"оригинальный" сюжет )pb.wtf



06-10-2017 13:12 Секс-Трип Скачать торрент  

Тупой фильм,тупые,но не смешные персонажи.Досмотрел только из за того,что заранее знал,что фильм короткий.Шлак.pb.wtf



07-11-2017 17:41 Секс-Трип Скачать торрент  

I/O писал(а):

"оригинальный" сюжет )

очень! pb.wtf



    Дорогой пользователь! Огромная просьба, поблагодарите релизера, оцените раздачу и оставьте свои комментарий, если Вы скачали Секс-Трип через торрент бесплатно! Внесите свою лепту в развитие PiratBit!
    Комментировать посты могут только пользователи прошедшие не сложную регистрацию
    Показать сообщения:    

    Секс-Трип через торрент
    Скачать бесплатно Секс-Трип
    Секс-Трип скачать торрент
    Секс-Трип смотреть онлайн
    Cкачать фильм Секс-Трип бесплатно
    Секс-Трип скачать торрент в хорошем качестве
    Секс-Трип смотреть онлайн бесплатно в хорошем качестве


    Вы не можете начинать темы
    Вы не можете отвечать на сообщения
    Вы не можете редактировать свои сообщения
    Вы не можете удалять свои сообщения
    Вы не можете голосовать в опросах
    Вы не можете прикреплять файлы к сообщениям
    Вы можете скачивать файлы