Ссылка на приватное зеркало нашего сайта всего за 1$. Внимание количество ограничено!!!

2 сезон

iTunes

1 сезон

1

2 сезон

2 сезон

iTunes

1 сезон

RePack

30

Ultimate

ВАЖНО

ИГРА 18+

pack

RePack

MK11
pack

Забери бонус

RePack

jed

!!Акция!!

Alien_Rage

RePack

fifa19

RePack

Assassins Creed: Odyssey

RePack

NEED FOR SPEED™ PAYBACK

4 сезон

9 сезон

Бесстыжие 9 сезон

Все сериалы

все сериалы на PB.wtf

RePack

FAR CRY 5
  

Детство Шелдона / Юный Шелдон / Young Sheldon / Сезон: 1 / Серии: 1-22 из 22 (Джон Фавро) [2017, Комедия, WEB-DLRip] VO [Кураж-Бамбей] pb.wtf

Детство Шелдона через торрент pb.wtf

Раздают: 1 [ 155 KB/s ]
Размер: 5.99 GB | Добавлен: 2 года 6 мес. назад | Торрент скачан:355 раз
Скачать  

05-10-2017 04:15 Детство Шелдона Скачать торрент  

Детство Шелдона / Юный Шелдон / Young SheldonГод выпуска: 2017
Страна: США
Жанр: Комедия
Продолжительность: ~ 00:22:00
Перевод: Профессиональный (одноголосый) | Кураж-Бамбей
Субтитры: отсутствуют

Режиссер: Джон Фавро

rating

В ролях:

Марсия Энн Бёррс, Док Фэрроу, Рекс Линн, Уайатт МакКлюр, Брайан Степанек, Мелисса Тэнг, Иэн Армитедж, Лэнс Барбер, Монтана Джордан, Джим Парсонс

Описание:

Приквел к «Теории большого взрыва» расскажет историю ребёнка-гения Шелдона Купера.


Качество: WEB-DLRip
Формат: AVI
Видео кодек: XviD
Аудио кодек: AC3

Видео: 720x400 (16:9), 23.976 fps, 1 628 Kbps (0.228 bit/pixel)
Аудио#1: AC-3, 44.1 KHz, 2 ch, 192 Kbps, CBR (Russian)
Аудио#2: AC-3, 48.0 KHz, 2 ch, 192 Kbps, CBR (English)
скриншот   скриншот   скриншот   скриншот  

Общее
Полное имя : D:\Young.Sheldon.S01.AMZN.WEB-DLRip-Kuraj-Bambey\Young.Sheldon.S01E01.Pilot.AMZN.WEB-DLRip-Kuraj-Bambey.avi
Формат : AVI
Формат/Информация : Audio Video Interleave
Размер файла : 300 Мбайт
Продолжительность : 21 м. 17 с.
Общий поток : 1971 Кбит/сек
Программа кодирования : VirtualDubMod 1.5.10.2 (build 2540/release)
Библиотека кодирования : VirtualDubMod build 2540/release

Видео
Идентификатор : 0
Формат : MPEG-4 Visual
Профиль формата : Advanced Simple@L5
Параметр BVOP формата : 1
Параметр QPel формата : Нет
Параметр GMC формата : Без точки перехода
Параметр матрицы формата : Default (H.263)
Идентификатор кодека : XVID
Идентификатор кодека/Подсказка : XviD
Продолжительность : 21 м. 17 с.
Битрейт : 1573 Кбит/сек
Ширина : 720 пикселей
Высота : 400 пикселей
Соотношение сторон : 16:9
Частота кадров : 23,976 (24000/1001) кадра/сек
Цветовое пространство : YUV
Субдискретизация насыщенности : 4:2:0
Битовая глубина : 8 бит
Тип развёртки : Прогрессивная
Метод сжатия : С потерями
Бит/(Пиксели*Кадры) : 0.228
Размер потока : 240 Мбайт (80%)
Библиотека кодирования : XviD 73

Аудио #1
Идентификатор : 1
Формат : AC-3
Формат/Информация : Audio Coding 3
Расширение режима : CM (complete main)
Параметр Endianness формата : Big
Идентификатор кодека : 2000
Продолжительность : 21 м. 17 с.
Вид битрейта : Постоянный
Битрейт : 192 Кбит/сек
Каналы : 2 канала
Расположение каналов : Front: L R
Частота : 48,0 КГц
Частота кадров : 31,250 кадров/сек (1536 spf)
Метод сжатия : С потерями
Размер потока : 29,2 Мбайт (10%)
Выравнивание : Соединение по промежуткам
Продолжительность промежутка : 42 мс. (1,00 видеокадр)
Время предзагрузки промежутка : 512 мс.

Аудио #2
Идентификатор : 2
Формат : AC-3
Формат/Информация : Audio Coding 3
Расширение режима : CM (complete main)
Параметр Endianness формата : Big
Идентификатор кодека : 2000
Продолжительность : 21 м. 17 с.
Вид битрейта : Постоянный
Битрейт : 192 Кбит/сек
Каналы : 2 канала
Расположение каналов : Front: L R
Частота : 48,0 КГц
Частота кадров : 31,250 кадров/сек (1536 spf)
Метод сжатия : С потерями
Размер потока : 29,2 Мбайт (10%)
Выравнивание : Соединение по промежуткам
Продолжительность промежутка : 42 мс. (1,00 видеокадр)
Время предзагрузки промежутка : 512 мс.

Внимание! Раздача ведётся путём добавления новых серий; при каждом добавлении создаётся новый торрент. Чтобы начать докачку новой серии, пользователям необходимо сделать следующее:
(1) остановить скачивание,
(2) удалить старый торрент у себя из клиента (старые серии удалять не надо),
(3) скачать новый торрент и запустить его у себя в клиенте вместо старого, при этом указать клиенту путь в старую папку куда и должно происходить скачивание новых серий.
Ваш клиент при этом должен произвести хеширование (проверку) старой папки (если не производит сам - помогите ему сделать это), и будет докачивать только те серии которых у вас ещё нет. Старые серии при этом не удаляются, а продолжают раздаваться!
Eсли вы уже удалили старые серии, то предотвратить повторную закачку старых серий можно, отжав галочку в соответсвующих местах при запуске нового торрента. По возможности, желательно не удалять старые серии как можно дольше чтобы релизёр не столько продолжал раздавать старые серии, а смог сконцентрироваться на новых.
pb.wtf



Скачать Детство Шелдона через торрент http://i1.imageban.ru/out/2017/10/04/b40d7b7cbcc5a6367a1a57d894c6ddb3.jpg Скачать фильм Детство Шелдона через торрент бесплантно в хорошем качестве Описание: Приквел к «Теории большого взрыва» расскажет историю ребёнка-гения Шелдона ... 10 10 11
Info! Золотая раздача, скачанное не засчитывается.
Торрент: Зарегистрирован [2018-05-16 19:19] · скачан: 355 раз
Статус: √ проверено
Размер: 5.99 GB
Как cкачать? Как скачать Детство Шелдона через торрент | qTorrent

% Раздел Тема Автор DL S | L
Зарубежные сериалы [ 5.3 GB ] Детство Шелдона / Юный Шелдон / Young Sheldon / Сезон: 3 / Серии: 1-8 из 22 [2019 WEB-DL 720p] MVO [NewStudio] bober100 Скачать
1 | 0
Зарубежные сериалы [ 10.29 GB ] Детство Шелдона / Юный Шелдон / Young Sheldon / Сезон: 2 / Серии: 1-22 из 22 [2018 WEB-DL 720p] MVO [Jaskier] bober100 Скачать
1 | 0
Зарубежные сериалы [ 5.21 GB ] Детство Шелдона / Юный Шелдон / Young Sheldon / Сезон: 2 / Серии: 1-22 из 22 [2018 WEB-DLRip] MVO [Jaskier] bober100 Скачать
1 | 0
Зарубежные сериалы [ 14.63 GB ] Детство Шелдона / Юный Шелдон / Young Sheldon / Сезон: 1 / Серии: 1-22 из 22 [2017 WEB-DL 720p] MVO [NewStudio] bober100 Скачать
1 | 0
Зарубежные сериалы [ 6.45 GB ] Детство Шелдона / Юный Шелдон / Young Sheldon / Сезон: 1 / Серии: 1-22 из 22 [2017 WEB-DLRip] MVO [NewStudio] bober100 Скачать
1 | 0
Зарубежные сериалы [ 5.08 GB ] Детство Шелдона / Юный Шелдон / Young Sheldon / Сезон: 1 / Серии: 1-22 из 22 [2017 HDTVRip] MVO [Jaskier] bober100 Скачать
1 | 0
Зарубежные сериалы [ 32.03 GB ] Детство Шелдона / Юный Шелдон / Young Sheldon / Сезон: 1 / Серии: 1-22 из 22 [2017 WEB-DL 1080p] VO [Кураж-Бамбей] bober100 Скачать
1 | 0


Последний раз редактировалось: bober100 (2018-05-16 19:19), всего редактировалось 7 раз(а)

28-11-2019 20:33  

Отключить всю рекламу на сайте

05-10-2017 13:53 Детство Шелдона Скачать торрент  

ну ни че так, будем смотреть дальше, спасибоpb.wtf



04-04-2018 18:55 Детство Шелдона Скачать торрент  

А где остальные серии ? Стоит ждать ?pb.wtf



04-04-2018 20:34 Детство Шелдона Скачать торрент  

jikkka писал(а):

А где остальные серии ? Стоит ждать ?

Добавил +15! pb.wtf



28-04-2018 18:34 Детство Шелдона Скачать торрент  

Еще серии будут ? Ждем раздачи.......pb.wtf



16-05-2018 19:34 Детство Шелдона Скачать торрент  

jikkka писал(а):

Еще серии будут ? Ждем раздачи.......

Добавил. Сезон полностью!!!pb.wtf



    Дорогой пользователь! Огромная просьба, поблагодарите релизера, оцените раздачу и оставьте свои комментарий, если Вы скачали Детство Шелдона через торрент бесплатно! Внесите свою лепту в развитие PiratBit!
    Комментировать посты могут только пользователи прошедшие не сложную регистрацию
    Показать сообщения:    

    Детство Шелдона через торрент
    Скачать бесплатно Детство Шелдона
    Детство Шелдона скачать торрент
    Детство Шелдона смотреть онлайн
    Cкачать фильм Детство Шелдона бесплатно
    Детство Шелдона скачать торрент в хорошем качестве
    Детство Шелдона смотреть онлайн бесплатно в хорошем качестве


    Вы не можете начинать темы
    Вы не можете отвечать на сообщения
    Вы не можете редактировать свои сообщения
    Вы не можете удалять свои сообщения
    Вы не можете голосовать в опросах
    Вы не можете прикреплять файлы к сообщениям
    Вы можете скачивать файлы