Ссылка на приватное зеркало нашего сайта всего за 1$. Внимание количество ограничено!!!

2 сезон

iTunes

1 сезон

1

2 сезон

2 сезон

iTunes

1 сезон

RePack

30

Ultimate

ВАЖНО

ИГРА 18+

pack

RePack

MK11
pack

Забери бонус

RePack

jed

!!Акция!!

Alien_Rage

RePack

fifa19

RePack

Assassins Creed: Odyssey

RePack

NEED FOR SPEED™ PAYBACK

4 сезон

9 сезон

Бесстыжие 9 сезон

Все сериалы

все сериалы на PB.wtf

RePack

FAR CRY 5
  

Секс-Трип / The Sex Trip (Энтони Дж. Коэн) [2017, фэнтези, комедия, WEB-DL 720p] DUB [iTunes] pb.wtf

Секс-Трип через торрент pb.wtf

Размер: 2.58 GB | Добавлен: 3 года 1 мес. назад | Торрент скачан:474 раза
Скачать  

05-10-2017 07:25 Секс-Трип Скачать торрент  

Секс-Трип / The Sex TripГод выпуска: 2017
Страна: США
Жанр: фэнтези, комедия
Продолжительность: 01:21:59
Перевод: Дубляж [iTunes]
Субтитры: отсутствуют

Режиссер: Энтони Дж. Коэн

rating

В ролях:

Джейд Рэмси, Луис Мэндилор, Марк Крамптон, Шарлотта Эллен Прайс, Рэйчел Бритаг, Наташа Бласик, Ребекка Грант, Джим Хэнкс

Описание:

Всего себя красавчик Эдди Гринлиф посвятил искусству соблазнения женщин. Эдди ведёт тренинги, пишет книги, раздаёт интервью и каждый божий день применяет свои теории на практике, укладывая в свою постель самых привлекательных представительниц прекрасного пола. Однако такая озабоченная-беззаботная жизнь просто не могла длиться вечно и сама судьба в виде уродливой ведьмы наказала Эдди. Как-то раз, направляясь на вечерику, Эдди повстречал старуху, которая потребовала его поцелуй.

«Бабуля, тебе со мной не светит» — отшутился Эдди и отправился на очередные подвиги. Однако утром он к своему тотальному удивлению обнаружил, что превратился в привлекательную брюнетку Эдну! Что же делать..? Как вернуть свое тело..?

Качество: WEB-DL 720p
Формат: MKV
Видео кодек: H.264
Аудио кодек: AC3

Видео: 1280x546 (2.35:1), 24.000 fps, MPEG-4 AVC ~4 025 kbps avg
Аудио: 48.0 kHz, AC3 Dolby Digital, 3/2 (L,C,R,l,r) + LFE ch, ~384 kbps
скриншот   скриншот   скриншот   скриншот   скриншот  

Общее
Уникальный идентификатор : 246516896901908544166347867500801418829 (0xB9756D6713B847A3B514DB395103E64D)
Полное имя : D:\C3kC.tP1p.2O17.D.WeB-DL.72Op.mkv
Формат : Matroska
Версия формата : Version 2
Размер файла : 2,58 Гбайт
Продолжительность : 1 ч. 21 м.
Общий поток : 4499 Кбит/сек
Дата кодирования : UTC 2017-10-04 18:15:14
Программа кодирования : mkvmerge v8.3.0 ('Over the Horizon') 64bit
Библиотека кодирования : libebml v1.3.1 + libmatroska v1.4.2

Видео
Идентификатор : 1
Формат : AVC
Формат/Информация : Advanced Video Codec
Профиль формата : High@L3.1
Параметр CABAC формата : Нет
Параметр ReFrames формата : 2 кадра
Идентификатор кодека : V_MPEG4/ISO/AVC
Продолжительность : 1 ч. 21 м.
Битрейт : 4025 Кбит/сек
Ширина : 1280 пикселей
Высота : 546 пикселей
Соотношение сторон : 2,35:1
Режим частоты кадров : Постоянный
Частота кадров : 24,000 кадра/сек
Цветовое пространство : YUV
Субдискретизация насыщенности : 4:2:0
Битовая глубина : 8 бит
Тип развёртки : Прогрессивная
Бит/(Пиксели*Кадры) : 0.240
Размер потока : 2,31 Гбайт (89%)
Язык : English
Default : Да
Forced : Нет
Цветовой диапазон : Limited
Основные цвета : BT.709
Характеристики трансфера : BT.709
Коэффициенты матрицы : BT.709

Аудио
Идентификатор : 2
Формат : AC-3
Формат/Информация : Audio Coding 3
Расширение режима : CM (complete main)
Параметр Endianness формата : Big
Идентификатор кодека : A_AC3
Продолжительность : 1 ч. 21 м.
Вид битрейта : Постоянный
Битрейт : 384 Кбит/сек
Каналы : 6 каналов
Расположение каналов : Front: L C R, Side: L R, LFE
Частота : 48,0 КГц
Частота кадров : 31,250 кадров/сек (1536 spf)
Метод сжатия : С потерями
Размер потока : 225 Мбайт (9%)
Язык : Russian
Default : Да
Forced : Нет

Меню
00:00:00.000 : en:Глава 1
00:06:27.500 : en:Глава 2
00:12:19.416 : en:Глава 3
00:18:18.291 : en:Глава 4
00:23:15.957 : en:Глава 5
00:29:29.748 : en:Глава 6
00:35:38.581 : en:Глава 7
00:41:27.497 : en:Глава 8
00:47:28.872 : en:Глава 9
00:53:04.747 : en:Глава 10
00:58:36.997 : en:Глава 11
01:06:25.122 : en:Глава 12
01:11:13.122 : en:Глава 13

pb.wtf



Скачать Секс-Трип через торрент http://img12.lostpic.net/2017/10/05/128da75ab1eff2b0310a230ef5c92805.png Скачать фильм Секс-Трип через торрент бесплантно в хорошем качестве Описание: Всего себя красавчик Эдди Гринлиф посвятил искусству соблазнения женщин. Эдди ведёт тренинги, пишет книги, раздаёт интервью и ... 9.5 10 10
Торрент: Зарегистрирован [2017-10-05 07:25] · скачан: 474 раз
Статус: √ проверено
Размер: 2.58 GB
Как cкачать? Как скачать Секс-Трип через торрент | qTorrent

% Раздел Тема Автор DL S | L
Фильмы 2017 [DVDrip, WEB-DLRip, HDrip] (DUB, MVO) [ 1.37 GB ] Секс-Трип / The Sex Trip [2017 WEB-DLRip / ] oleg8 Скачать
2 | 0
T Релизы по Парсеру [Игры, Сериалы и Фильмы и другое...] [ 1.46 GB ] Секс-Трип / The Sex Trip [2017 WEB-DLRip-AVC] bober100 Скачать
1 | 0
Фильмы (WEB-DL 720p, 1080p) [ 2.86 GB ] Секс-Трип / The Sex Trip [2017 WEB-DL 1080p] bober100 Скачать
1 | 0

28-11-2019 20:33  

Отключить всю рекламу на сайте

    Дорогой пользователь! Огромная просьба, поблагодарите релизера, оцените раздачу и оставьте свои комментарий, если Вы скачали Секс-Трип через торрент бесплатно! Внесите свою лепту в развитие PiratBit!
    Комментировать посты могут только пользователи прошедшие не сложную регистрацию
    Показать сообщения:    

    Секс-Трип через торрент
    Скачать бесплатно Секс-Трип
    Секс-Трип скачать торрент
    Секс-Трип смотреть онлайн
    Cкачать фильм Секс-Трип бесплатно
    Секс-Трип скачать торрент в хорошем качестве
    Секс-Трип смотреть онлайн бесплатно в хорошем качестве


    Вы не можете начинать темы
    Вы не можете отвечать на сообщения
    Вы не можете редактировать свои сообщения
    Вы не можете удалять свои сообщения
    Вы не можете голосовать в опросах
    Вы не можете прикреплять файлы к сообщениям
    Вы можете скачивать файлы