Ссылка на приватное зеркало нашего сайта всего за 1$. Внимание количество ограничено!!!

2 сезон

iTunes

1 сезон

1

2 сезон

2 сезон

iTunes

1 сезон

RePack

30

Новинка

ВАЖНО

ИГРА 18+

pack

RePack

MK11
pack

Забери бонус

RePack

jed

!!Акция!!

Alien_Rage

RePack

fifa19

RePack

Assassins Creed: Odyssey

RePack

NEED FOR SPEED™ PAYBACK

4 сезон

9 сезон

Бесстыжие 9 сезон

Все сериалы

все сериалы на PB.wtf

RePack

FAR CRY 5
  

Турист / The Tourist (Флориан Хенкель фон Доннерсмарк) [2010, Боевик, триллер, драма, BD Remux 1080p] MVO+AVO+DUB (rus, ukr) pb.wtf

Турист через торрент pb.wtf

Размер: 29.18 GB | Добавлен: 3 года 1 мес. назад | Торрент скачан:23 раза
Скачать  

05-10-2017 11:05 Турист Скачать торрент  

Турист / The TouristГод выпуска: 2010
Страна: США, Франция
Жанр: Боевик, триллер, драма
Продолжительность: 01:43:48
Перевод: Дубляж, профессиональный многоголосый, авторский
Субтитры: Русские, английские

Режиссер: Флориан Хенкель фон Доннерсмарк

rating

В ролях:

Джонни Депп, Анджелина Джоли, Пол Беттани, Тимоти Далтон, Стивен Беркофф, Руфус Сьюэлл, Кристиан Де Сика, Алессио Бони, Даниэле Печчи, Джованни Гвиделли, Рауль Бова, Брюно Волкович, Марк Рюшманн, Жюльен Бомгартнер, Франсуа Винчентелли, Клеман Сибони, Жан-Клод Адлен, Жан-Мари Ламур, Николя Гийо, Мхамед Арезки

Описание:

Американец отправляется в путешествие по Европе, где, желая залечить душевные раны, заводит интрижку с обворожительной красоткой. Вскоре ничего не подозревающий турист оказывается втянутым в международный преступный заговор, в котором завязаны Интерпол и русская мафия, принимающие его за криминального авторитета.

Качество: BD Remux 1080p
Формат: MKV
Видео кодек: H.264
Аудио кодек: AC3/DTS-HD MA

Видео: 24.93 Mбит/с, 1920x1080, 23.976 кадр/с
Аудио#1: Russian; AC3; 640 Kbps; CBR; 6 ch; 48 kHz -Дубляж
Аудио#2: Ukrainian; AC3; 640 Kbps; CBR; 6 ch; 48 kHz -Дубляж
Аудио#3: Russian; DTS-HD MA; 6 ch; 3717 kbps; 24-bit; 48 kHz (DTS Core: 5.1 / 48 kHz / 1509 kbps / 24-bit) -Профессиональный многоголосый
Аудио#4: English; DTS-HD MA; 6 ch; 3703 kbps; 24-bit; 48 kHz (DTS Core: 5.1 / 48 kHz / 1509 kbps / 24-bit) - Оригинал
Аудио#№5: Russian; DTS 5.1 1510 kbps / 48 kHz / 1510 kbps / 24-bit - Дубляж
Аудио#№6: Russian; DTS 5.1 1510 kbps / 48 kHz / 1510 kbps / 24-bit - Авторский (Гаврилов)
Аудио#№7: Russian; DTS-HD MA; 6 ch; 3716 kbps; 24-bit; 48 kHz (DTS Core: 5.1 / 48 kHz / 1509 kbps / 24-bit) -Дубляж
скриншот   скриншот   скриншот   скриншот   скриншот   скриншот  

Общее
Уникальный идентификатор : 201677053835729404991774052620411921603 (0x97B9967404C096BE8ECA385396B8E4C3)
Полное имя : D:\РЕМУКС\Турист.BDRemux..mkv
Формат : Matroska
Версия формата : Version 2
Размер файла : 29,2 Гбайт
Продолжительность : 1 ч. 43 м.
Режим общего битрейта : Переменный
Общий поток : 40,4 Мбит/сек
Название фильма : The Tourist (2010)
Дата кодирования : UTC 2015-02-02 10:39:08
Программа кодирования : mkvmerge v5.0.1 ('Es ist Sommer') built on Oct 9 2011 11:55:43
Библиотека кодирования : libebml v1.2.2 + libmatroska v1.3.0

Видео
Идентификатор : 1
Формат : AVC
Формат/Информация : Advanced Video Codec
Профиль формата : High@L4.1
Параметр CABAC формата : Да
Параметр ReFrames формата : 2 кадра
Режим смешивания : Container profile=Unknown@0.0
Идентификатор кодека : V_MPEG4/ISO/AVC
Продолжительность : 1 ч. 43 м.
Вид битрейта : Переменный
Ширина : 1920 пикселей
Высота : 1080 пикселей
Соотношение сторон : 16:9
Режим частоты кадров : Постоянный
Частота кадров : 23,976 кадра/сек
Цветовое пространство : YUV
Субдискретизация насыщенности : 4:2:0
Битовая глубина : 8 бит
Тип развёртки : Прогрессивная
Заголовок : The Tourist (2010) BD-Remux AVC 1080p DTS-HD 5.1
Язык : English
Default : Да
Forced : Нет

Аудио #1
Идентификатор : 2
Формат : AC-3
Формат/Информация : Audio Coding 3
Расширение режима : CM (complete main)
Параметр Endianness формата : Big
Идентификатор кодека : A_AC3
Продолжительность : 1 ч. 43 м.
Вид битрейта : Постоянный
Битрейт : 640 Кбит/сек
Каналы : 6 каналов
Расположение каналов : Front: L C R, Side: L R, LFE
Частота : 48,0 КГц
Битовая глубина : 16 бит
Метод сжатия : С потерями
Размер потока : 474 Мбайт (2%)
Заголовок : Dub AC3 5.1 @ 640 kbps
Язык : Russian
Default : Нет
Forced : Нет

Аудио #2
Идентификатор : 3
Формат : AC-3
Формат/Информация : Audio Coding 3
Расширение режима : CM (complete main)
Параметр Endianness формата : Big
Идентификатор кодека : A_AC3
Продолжительность : 1 ч. 43 м.
Вид битрейта : Постоянный
Битрейт : 640 Кбит/сек
Каналы : 6 каналов
Расположение каналов : Front: L C R, Side: L R, LFE
Частота : 48,0 КГц
Битовая глубина : 16 бит
Метод сжатия : С потерями
Размер потока : 474 Мбайт (2%)
Заголовок : Dub AC3 5.1 @ 640 kbps
Язык : Ukrainian
Default : Нет
Forced : Нет

Аудио #3
Идентификатор : 4
Формат : DTS
Формат/Информация : Digital Theater Systems
Профиль формата : MA / Core
Режим : 16
Параметр Endianness формата : Big
Идентификатор кодека : A_DTS
Продолжительность : 1 ч. 43 м.
Вид битрейта : Переменный
Битрейт : Неизвестно / 1509 Кбит/сек
Каналы : 6 каналов
Расположение каналов : Front: L C R, Side: L R, LFE
Частота : 48,0 КГц
Битовая глубина : 24 бит
Метод сжатия : Без потерь / Lossy
Заголовок : MVO DTS-HD Master Audio 5.1 @ 3717 kbps [DTS Core: 5.1 / 48 kHz / 1509 kbps / 24-bit]
Язык : Russian
Default : Нет
Forced : Нет

Аудио #4
Идентификатор : 5
Формат : DTS
Формат/Информация : Digital Theater Systems
Профиль формата : MA / Core
Режим : 16
Параметр Endianness формата : Big
Идентификатор кодека : A_DTS
Продолжительность : 1 ч. 43 м.
Вид битрейта : Переменный
Битрейт : Неизвестно / 1509 Кбит/сек
Каналы : 6 каналов
Расположение каналов : Front: L C R, Side: L R, LFE
Частота : 48,0 КГц
Битовая глубина : 24 бит
Метод сжатия : Без потерь / Lossy
Заголовок : DTS-HD Master Audio 5.1 @ 3703 kbps [DTS Core: 5.1 / 48 kHz / 1509 kbps / 24-bit]
Язык : English
Default : Нет
Forced : Нет

Аудио #5
Идентификатор : 10
Формат : DTS
Формат/Информация : Digital Theater Systems
Режим : 16
Параметр Endianness формата : Big
Идентификатор кодека : A_DTS
Продолжительность : 1 ч. 43 м.
Вид битрейта : Постоянный
Битрейт : 1509 Кбит/сек
Каналы : 6 каналов
Расположение каналов : Front: L C R, Side: L R, LFE
Частота : 48,0 КГц
Битовая глубина : 24 бит
Метод сжатия : С потерями
Размер потока : 1,09 Гбайт (4%)
Заголовок : Дубляж DTS, 6 ch, 1510 Кбит/с
Язык : Russian
Default : Нет
Forced : Нет

Аудио #6
Идентификатор : 11
Формат : DTS
Формат/Информация : Digital Theater Systems
Режим : 16
Параметр Endianness формата : Big
Идентификатор кодека : A_DTS
Продолжительность : 1 ч. 43 м.
Вид битрейта : Постоянный
Битрейт : 1509 Кбит/сек
Каналы : 6 каналов
Расположение каналов : Front: L C R, Side: L R, LFE
Частота : 48,0 КГц
Битовая глубина : 24 бит
Метод сжатия : С потерями
Размер потока : 1,09 Гбайт (4%)
Заголовок : А.Гаврилов DTS, 6 ch, 1510 Кбит/с
Язык : Russian
Default : Нет
Forced : Нет

Аудио #7
Идентификатор : 12
Формат : DTS
Формат/Информация : Digital Theater Systems
Профиль формата : MA / Core
Режим : 16
Параметр Endianness формата : Big
Идентификатор кодека : A_DTS
Продолжительность : 1 ч. 43 м.
Вид битрейта : Переменный
Битрейт : Неизвестно / 1509 Кбит/сек
Каналы : 6 каналов
Расположение каналов : Front: L C R, Side: L R, LFE
Частота : 48,0 КГц
Битовая глубина : 24 бит
Метод сжатия : Без потерь / Lossy
Заголовок : Дубляж DTS-HD Master Audio 5.1 @ 3716 kbps [DTS Core: 5.1 / 48 kHz / 1509 kbps / 24-bit]
Язык : Russian
Default : Да
Forced : Нет

Текст #1
Идентификатор : 6
Формат : UTF-8
Идентификатор кодека : S_TEXT/UTF8
Идентификатор кодека/Информация : UTF-8 Plain Text
Заголовок : forced
Язык : Russian
Default : Да
Forced : Нет

Текст #2
Идентификатор : 7
Формат : UTF-8
Идентификатор кодека : S_TEXT/UTF8
Идентификатор кодека/Информация : UTF-8 Plain Text
Заголовок : full
Язык : Russian
Default : Нет
Forced : Нет

Текст #3
Идентификатор : 8
Формат : UTF-8
Идентификатор кодека : S_TEXT/UTF8
Идентификатор кодека/Информация : UTF-8 Plain Text
Язык : English
Default : Нет
Forced : Нет

Текст #4
Идентификатор : 9
Формат : UTF-8
Идентификатор кодека : S_TEXT/UTF8
Идентификатор кодека/Информация : UTF-8 Plain Text
Заголовок : Director Commentary
Язык : English
Default : Нет
Forced : Нет

Меню
00:00:00.000 : en:00:00:00.000
00:08:05.860 : en:00:08:05.860
00:11:30.857 : en:00:11:30.857
00:17:08.277 : en:00:17:08.277
00:25:06.672 : en:00:25:06.672
00:30:27.117 : en:00:30:27.117
00:34:13.009 : en:00:34:13.009
00:40:59.582 : en:00:40:59.582
00:49:29.842 : en:00:49:29.842
00:55:22.736 : en:00:55:22.736
01:00:55.944 : en:01:00:55.944
01:06:24.314 : en:01:06:24.314
01:12:52.535 : en:01:12:52.535
01:17:40.739 : en:01:17:40.739
01:24:38.365 : en:01:24:38.365
01:30:16.536 : en:01:30:16.536

pb.wtf



Скачать Турист через торрент http://s019.radikal.ru/i626/1710/21/cce015abcdeb.jpg Скачать фильм Турист через торрент бесплантно в хорошем качестве Описание: Американец отправляется в путешествие по Европе, где, желая залечить душевные раны, заводит интрижку с обворожительной красоткой. ... 10 10 4
Info! Золотая раздача, скачанное не засчитывается.
Торрент: Зарегистрирован [2017-10-05 11:05] · скачан: 23 раз
Статус: √ проверено
Размер: 29.18 GB
Как cкачать? Как скачать Турист через торрент | qTorrent

% Раздел Тема Автор DL S | L
Фильмы (HD 720p, 1080p) (48-60 fps) [ 2.82 GB ] Турист / The Tourist [2010 BDRip 720p / 60 FPS ] от R.G. HD-Films slaventi-69 Скачать
1 | 0
Фильмы [HD 720p, 1080p] (Хороший звук DUB, MVO) [ 14.07 GB ] Турист / The Tourist [2010 BDRip 1080p by msltel] DUB MVO AVO msltel Скачать
1 | 0
Фильмы [HD 720p, 1080p] (Хороший звук DUB, MVO) [ 5.02 GB ] Турист / The Tourist [2010 BDRip 720p by msltel] DUB MVO AVO msltel Скачать
1 | 0
Фильмы 2012 [ 1.37 GB ] Путешественник скорби / The Grief Tourist [2012 HDRip] DVO+Original Assasinca Скачать
1 | 0
Фильмы [HD 720p, 1080p] (Хороший звук DUB, MVO) [ 4.78 GB ] Турист / The Tourist [2010 BDRip 720p]DUB +Original Sub rus + original eng -=Cherry=- Скачать
1 | 0
Фильмы [HD 720p, 1080p] (Хороший звук DUB, MVO) [ 10.36 GB ] Турист / The Tourist [2010 Мело BDRip DUB + Оригинал] ~Relizer~ Скачать
1 | 0
Фильмы [HD 720p, 1080p] (Хороший звук DUB, MVO) [ 11.17 GB ] Турист / The Tourist [2010 BDRip 1080p] diletant Скачать
1 | 0

28-11-2019 20:33  

Отключить всю рекламу на сайте

    Дорогой пользователь! Огромная просьба, поблагодарите релизера, оцените раздачу и оставьте свои комментарий, если Вы скачали Турист через торрент бесплатно! Внесите свою лепту в развитие PiratBit!
    Комментировать посты могут только пользователи прошедшие не сложную регистрацию
    Показать сообщения:    

    Турист через торрент
    Скачать бесплатно Турист
    Турист скачать торрент
    Турист смотреть онлайн
    Cкачать фильм Турист бесплатно
    Турист скачать торрент в хорошем качестве
    Турист смотреть онлайн бесплатно в хорошем качестве


    Вы не можете начинать темы
    Вы не можете отвечать на сообщения
    Вы не можете редактировать свои сообщения
    Вы не можете удалять свои сообщения
    Вы не можете голосовать в опросах
    Вы не можете прикреплять файлы к сообщениям
    Вы можете скачивать файлы