Ссылка на приватное зеркало нашего сайта всего за 1$. Внимание количество ограничено!!!

2 сезон

iTunes

1 сезон

1

2 сезон

2 сезон

iTunes

1 сезон

RePack

30

Ultimate

ВАЖНО

ИГРА 18+

pack

RePack

MK11
pack

Забери бонус

RePack

jed

!!Акция!!

Alien_Rage

RePack

fifa19

RePack

Assassins Creed: Odyssey

RePack

NEED FOR SPEED™ PAYBACK

4 сезон

9 сезон

Бесстыжие 9 сезон

Все сериалы

все сериалы на PB.wtf

RePack

FAR CRY 5
  

Стартап / StartUp / Сезон: 2 / Серия: 1-10 из 10 [2017, Триллер, криминал, WEBRip] [MVO] (Jaskier) pb.wtf

Стартап через торрент pb.wtf

Размер: 5.38 GB | Добавлен: 3 года 1 мес. назад | Торрент скачан:56 раз
Скачать  

05-10-2017 16:44 Стартап Скачать торрент  

Стартап | StartUp

Год выпуска: 2017
Страна: США
Жанр: Триллер, криминал
Продолжительность: ~ 00:55:00
Перевод: Профессиональный (многоголосый закадровый) Студия Jaskier
Субтитры: Нет

Режиссёр: Бен Кетаи

В ролях: Мартин Фриман, Адам Броди, Эди Гатеги, Кристен Ариза, Эшли Хиншоу, Келвин Харрисон и другие

Описание: Нередко хорошая идея, существующая где-то в умах гениального конструктора или стратега не воплощается в реальность из-за того, что нет подходящих ресурсов для ее осуществления. Так и оказывается в этот раз. Cериал рассказывает о трех разных людях, занимающихся реализацией одной и той же идеи. Один из них Фил Раск, который является агентом ФБР. Он расследует преступления в мире финансов. Он знакомится с Ником Талмоном, молодым человеком, который является сыном одного из подозреваемых в ведущемся деле. Тут начинается разворачиваться нешуточная семейная драма, которая переплетается с расследованием.



Качество: WEBRip
Формат: AVI
Видео кодек: XviD
Аудио кодек: MP3
Видео: XviD, ~ 1500 kbps, 720x400 (16:9), 23.976 fps
Аудио 1: MP3, 48,0 КГц, 2 ch, 128 kbps - Rus
Аудио 2: MP3, 48,0 КГц, 2 ch, 128 kbps - Eng
General
Complete name : E:\StartUp. Season 2 (WEBRip l 400p l Jaskier)\StartUp.S02E01.WEBRip.Jaskier.Rus.Eng.avi
Format : AVI
Format/Info : Audio Video Interleave
File size : 551 MiB
Duration : 48mn 10s
Overall bit rate : 1 599 Kbps
Writing application : VirtualDubMod 1.5.10.2 (build 2540/release)
Writing library : VirtualDubMod build 2540/release

Video
ID : 0
Format : MPEG-4 Visual
Format profile : Advanced Simple@L5
Format settings, BVOP : 1
Format settings, QPel : No
Format settings, GMC : No warppoints
Format settings, Matrix : Default (MPEG)
Codec ID : XVID
Codec ID/Hint : XviD
Duration : 48mn 10s
Bit rate : 1 268 Kbps
Width : 720 pixels
Height : 400 pixels
Display aspect ratio : 16:9
Frame rate : 23.976 fps
Color space : YUV
Chroma subsampling : 4:2:0
Bit depth : 8 bits
Scan type : Progressive
Compression mode : Lossy
Bits/(Pixel*Frame) : 0.184
Stream size : 437 MiB (79%)
Writing library : XviD 73

Audio #1
ID : 1
Format : MPEG Audio
Format version : Version 1
Format profile : Layer 3
Mode : Joint stereo
Mode extension : MS Stereo
Codec ID : 55
Codec ID/Hint : MP3
Duration : 48mn 10s
Bit rate mode : Constant
Bit rate : 128 Kbps
Channel(s) : 2 channels
Sampling rate : 48.0 KHz
Compression mode : Lossy
Stream size : 44.1 MiB (8%)
Alignment : Aligned on interleaves

Audio #2
ID : 2
Format : MPEG Audio
Format version : Version 1
Format profile : Layer 3
Mode : Joint stereo
Mode extension : MS Stereo
Codec ID : 55
Codec ID/Hint : MP3
Duration : 48mn 10s
Bit rate mode : Constant
Bit rate : 128 Kbps
Channel(s) : 2 channels
Sampling rate : 48.0 KHz
Compression mode : Lossy
Stream size : 44.1 MiB (8%)
Alignment : Aligned on interleaves
скриншот  скриншот  скриншот  
pb.wtf



Скачать Стартап через торрент http://i91.fastpic.ru/big/2017/1005/3d/e412bb255eb64999833d31af4cf0293d.png Скачать фильм Стартап через торрент бесплантно в хорошем качестве Описание: Нередко хорошая идея, существующая где-то в умах гениального конструктора или стратега не воплощается в реальность из-за того, ... 10 10 3
Торрент: Зарегистрирован [2017-10-05 16:44] · скачан: 56 раз
Статус: √ проверено
Размер: 5.38 GB
Как cкачать? Как скачать Стартап через торрент | qTorrent

% Раздел Тема Автор DL S | L
Зарубежные сериалы [ 11.63 GB ] Стартап / StartUp / Сезон: 2 / Серии: 1-10 из 10 [2017 WEB-DL 720p] DUB [Spike] bober100 Скачать
1 | 0
Зарубежные сериалы [ 31.31 GB ] Стартап / StartUp / Сезон: 2 / Серии: 1-10 из 10 [2017 WEB-DL 1080p] DUB [Spike] bober100 Скачать
1 | 0
Зарубежные сериалы [ 32.01 GB ] Стартап / StartUp / Сезон: 2 / Серия: 1-10 из 10 [2017 WEBRip 1080p] [MVO] killermax2013 Скачать
1 | 0
Зарубежные сериалы [ 5.38 GB ] Стартап / StartUp / Сезон: 2 / Серия: 1-10 из 10 [2017 [2017 WEBRip] [MVO] killermax2013 Скачать
1 | 0
Зарубежные сериалы [ 19.44 GB ] Стартап / StartUp / Сезон: 2 / Серия: 1-10 из 10 [2017 [2017 WEB-DLRip 1080p] [MVO] killermax2013 Скачать
1 | 0
Зарубежные сериалы [ 900 MB ] Стартап / StartUp / Сезон: 2 / Серия: 1 из 10 [2017 WEBRip 720p] [MVO] killermax2013 Скачать
1 | 0
Зарубежные сериалы [ 5.37 GB ] Стартап / StartUp / Сезон: 2 / Серия: 1-10 из 10 [2017 WEB-DLRip] [MVO] killermax2013 Скачать
1 | 0

28-11-2019 20:33  

Отключить всю рекламу на сайте

    Дорогой пользователь! Огромная просьба, поблагодарите релизера, оцените раздачу и оставьте свои комментарий, если Вы скачали Стартап через торрент бесплатно! Внесите свою лепту в развитие PiratBit!
    Комментировать посты могут только пользователи прошедшие не сложную регистрацию
    Показать сообщения:    

    Стартап через торрент
    Скачать бесплатно Стартап
    Стартап скачать торрент
    Стартап смотреть онлайн
    Cкачать фильм Стартап бесплатно
    Стартап скачать торрент в хорошем качестве
    Стартап смотреть онлайн бесплатно в хорошем качестве


    Вы не можете начинать темы
    Вы не можете отвечать на сообщения
    Вы не можете редактировать свои сообщения
    Вы не можете удалять свои сообщения
    Вы не можете голосовать в опросах
    Вы не можете прикреплять файлы к сообщениям
    Вы можете скачивать файлы