Ссылка на приватное зеркало нашего сайта всего за 1$. Внимание количество ограничено!!!

2 сезон

iTunes

1 сезон

1

iTunes

iTunes

iTunes

1 сезон

RePack

30

ИГРА 18+

pack

ВАЖНО

!!Акция!!

Alien_RageХит недели

RePack

MK11
pack

Забери бонус

RePack

jed

!!Акция!!

Alien_Rage

RePack

fifa19

RePack

Assassins Creed: Odyssey

RePack

NEED FOR SPEED™ PAYBACK

4 сезон

9 сезон

Бесстыжие 9 сезон

Все сериалы

все сериалы на PB.wtf

RePack

FAR CRY 5
  

Нюхач / Сезон 3 / Серии 1-8 из 8 (Артем Литвиненко) [2017, Детектив, WEB-DL 1080p] pb.wtf

Нюхач через торрент pb.wtf

Размер: 13.74 GB | Добавлен: 3 года назад | Торрент скачан:216 раз
Скачать  

06-10-2017 05:00 Нюхач Скачать торрент  

НюхачГод выпуска: 2017
Страна: Украина, Россия
Жанр: Детектив
Продолжительность: 8 х ~ 00:50:00
Язык: Русский
Субтитры: отсутствуют
Реклама, любого вида, отсутствует.

Режиссер: Артем Литвиненко

rating

В ролях:

Кирилл Кяро, Иван Оганесян, Николай Чиндяйкин, Мария Аниканова, Агне Грудите, Нина Гогаева, Мария Трепикова, Тамбет Туйск, Катрин Пярн, Маркус Двиньянинов, Тийт Лиллеорг

Описание:

Для Нюхача не существует тайн и безнадежных преступлений, ведь в первую же минуту знакомства он готов рассказать о любом человеке абсолютно все. Но у этого дара есть обратная сторона: Нюхач абсолютно беззащитен перед окружающим миром. Он не умеет строить отношения с людьми. Ему невозможно сделать сюрприз, его нельзя обмануть, любой посторонний запах оттолкнет его от самого романтического свидания. У него сложная, но интересная жизнь...

Качество: WEB-DL 1080p
Формат: MKV
Видео кодек: H.264
Аудио кодек: AC3

Видео: MPEG-4 AVC, ~ 4500 Кбит/с, 1920x1080, 25 Кадр/с
Аудио: AC3, 2 ch, 192 Кбит/с


Релиз от:
скриншот   скриншот   скриншот   скриншот  

Общее
Уникальный идентификатор : 225291394041173955445626839786016964515 (0xA97D8B50AB4FCD2DBC084D31C5537FA3)
Полное имя : D:\Nyuhach.3.2017.WEB-DL.(1080p).ExKinoRay\Nyuhach.3.(01.seriya).2017.WEB-DL.(1080p).ExKinoRay.mkv
Формат : Matroska
Версия формата : Version 2
Размер файла : 1,66 Гбайт
Продолжительность : 49 м. 24 с.
Режим общего битрейта : Постоянный
Общий поток : 4799 Кбит/сек
Дата кодирования : UTC 2017-10-02 21:11:00
Программа кодирования : mkvmerge v5.8.0 ('No Sleep / Pillow') built on Sep 2 2012 15:37:04
Библиотека кодирования : libebml v1.2.3 + libmatroska v1.3.0

Видео
Идентификатор : 1
Формат : AVC
Формат/Информация : Advanced Video Codec
Профиль формата : High@L4.1
Параметр CABAC формата : Да
Параметр ReFrames формата : 4 кадра
Идентификатор кодека : V_MPEG4/ISO/AVC
Продолжительность : 49 м. 24 с.
Вид битрейта : Постоянный
Битрейт : 4512 Кбит/сек
Номинальный битрейт : 4800 Кбит/сек
Ширина : 1920 пикселей
Высота : 1080 пикселей
Соотношение сторон : 16:9
Режим частоты кадров : Постоянный
Частота кадров : 25,000 кадров/сек
Цветовое пространство : YUV
Субдискретизация насыщенности : 4:2:0
Битовая глубина : 8 бит
Тип развёртки : Прогрессивная
Бит/(Пиксели*Кадры) : 0.087
Размер потока : 1,56 Гбайт (94%)
Язык : Russian
Default : Да
Forced : Да

Аудио
Идентификатор : 2
Формат : AC-3
Формат/Информация : Audio Coding 3
Расширение режима : CM (complete main)
Параметр Endianness формата : Big
Идентификатор кодека : A_AC3
Продолжительность : 49 м. 24 с.
Вид битрейта : Постоянный
Битрейт : 192 Кбит/сек
Каналы : 2 канала
Расположение каналов : Front: L R
Частота : 48,0 КГц
Частота кадров : 31,250 кадров/сек (1536 spf)
Метод сжатия : С потерями
Размер потока : 67,9 Мбайт (4%)
Язык : Russian
Default : Да
Forced : Да

pb.wtf



Скачать Нюхач через торрент http://s014.radikal.ru/i327/1709/89/2068ed13e8d1.jpg Скачать фильм Нюхач через торрент бесплантно в хорошем качестве Описание: Для Нюхача не существует тайн и безнадежных преступлений, ведь в первую же минуту знакомства он готов рассказать о любом человеке ... 10 10 8
Info! Золотая раздача, скачанное не засчитывается.
Торрент: Зарегистрирован [2017-10-06 05:00] · скачан: 216 раз
Статус: √ проверено
Размер: 13.74 GB
Как cкачать? Как скачать Нюхач через торрент | qTorrent

% Раздел Тема Автор DL S | L
Наши сериалы [ 5.25 GB ] Нюхач / Сезон 3 / Серия 1-8 из 8 [2017 WEB-DLRip-AVC] - ExKinoRay Enigma2010 Скачать
2 | 0
Наши сериалы [ 9.32 GB ] Нюхач / Сезон 3 / Серии 1-8 из 8 [2017 WEB-DL 720p] bober100 Скачать
1 | 0
Наши сериалы [ 5.54 GB ] Нюхач / Сезон 3 / Серия 1-8 из 8 [2017 SATRip] oleg8 Скачать
1 | 0

28-11-2019 20:33  

Отключить всю рекламу на сайте

09-10-2017 06:17 Нюхач Скачать торрент  

На самом деле разочаровал третий сезон этого сериала.
Первые два сезона были интереснее и как то что ли более реалистичны!
А тут..... ну вообще на один раз посмотреть!pb.wtf



14-10-2017 09:43 Нюхач Скачать торрент  

А не подскажите к какого европейского фильма он слизан?pb.wtf



    Дорогой пользователь! Огромная просьба, поблагодарите релизера, оцените раздачу и оставьте свои комментарий, если Вы скачали Нюхач через торрент бесплатно! Внесите свою лепту в развитие PiratBit!
    Комментировать посты могут только пользователи прошедшие не сложную регистрацию
    Показать сообщения:    

    Нюхач через торрент
    Скачать бесплатно Нюхач
    Нюхач скачать торрент
    Нюхач смотреть онлайн
    Cкачать фильм Нюхач бесплатно
    Нюхач скачать торрент в хорошем качестве
    Нюхач смотреть онлайн бесплатно в хорошем качестве


    Вы не можете начинать темы
    Вы не можете отвечать на сообщения
    Вы не можете редактировать свои сообщения
    Вы не можете удалять свои сообщения
    Вы не можете голосовать в опросах
    Вы не можете прикреплять файлы к сообщениям
    Вы можете скачивать файлы