Ссылка на приватное зеркало нашего сайта всего за 1$. Внимание количество ограничено!!!

2 сезон

iTunes

1 сезон

1

iTunes

iTunes

iTunes

1 сезон

RePack

30

ИГРА 18+

pack

ВАЖНО

!!Акция!!

Alien_RageХит недели

RePack

MK11
pack

Забери бонус

RePack

jed

!!Акция!!

Alien_Rage

RePack

fifa19

RePack

Assassins Creed: Odyssey

RePack

NEED FOR SPEED™ PAYBACK

4 сезон

9 сезон

Бесстыжие 9 сезон

Все сериалы

все сериалы на PB.wtf

RePack

FAR CRY 5
  

Весёлая пасха / Joyeuses Pâques (Жорж Лотнер) [1984, комедия, BDRip 1080p by msltel] 2 x MVO, DVO pb.wtf

Весёлая пасха через торрент pb.wtf

Размер: 10.41 GB | Добавлен: 3 года назад | Торрент скачан:32 раза
Скачать  

06-10-2017 08:03 Весёлая пасха Скачать торрент  

Название: Весёлая пасха
Оригинальное название: Joyeuses Pâques
Год выпуска: 1984
Страна: Франция
Жанр: комедия
Продолжительность: 01:38:17
Перевод: профессиональный многоголосый, профессиональный двухголосый

Режиссер: Жорж Лотнер
В ролях: Жан-Поль Бельмондо, Софи Марсо, Мари Лафоре, Рози Варт, Мишель Бон, Мари-Кристин Декуар, Жерар Эрнандес, Марк Ламоль, Морис Озель, Шарли Бертони, Кристиан Бьянки, Анри Коган, Мюриэль Дюбрюль, Шарли Кубессерьян, Филипп Мариэль, Лоран Натрелла, Жан Панисс, Патрик Рокка, Флора Алберти, Жерар Кэмп, Майтена Галли, Жан-Пьер Лоррэн, Хенриетта Пайпер, Пьер Россо, Огюст Даниэль, Реми Жюльен, Карлос Сотто Майор

О фильме: Герой Бельмондо, преуспевающий бизнесмен и неисправимый ловелас, проводив жену в аэропорт, тут же знакомится с юной прелестницей. Он приводит её к себе домой, но внезапно возвращается жена. Пытаясь выкрутиться, герой Бельмондо выдаёт девушку за свою дочь...



Качество: BDRip 1080p
Формат: MKV
Видео: MPEG-4 AVC, 14.1 Mбит/с, 1920x816
Аудио 1: русский, AC3, 256 kbps, 2 ch, 48 kHz [профессиональный многоголосый, HTB]
Аудио 2: русский, AC3, 256 kbps, 2 ch, 48 kHz [профессиональный многоголосый, RUSCICO]
Аудио 3: русский, AC3, 256 kbps, 2 ch, 48 kHz [профессиональный двухголосый, OPT]
Аудио 4: французский, AC3, 256 kbps, 2 ch, 48 kHz [оригинал]
Имеются неименованные главы/чаптеры.
Общее
Уникальный идентификатор : 205978045846787814132375824981832126323 (0x9AF5EDBB3CD58FE59CEDB89E7F224F73)
Полное имя : D:\Video\Веселая пасха.1984.BDRip.1080p by msltel.mkv
Формат : Matroska
Версия формата : Version 4 / Version 2
Размер файла : 10,4 Гбайт
Продолжительность : 1 ч. 38 м.
Общий поток : 15,2 Мбит/сек
Название фильма : Rip by msltel
Дата кодирования : UTC 2017-10-06 02:30:01
Программа кодирования : mkvmerge v8.2.0 ('World of Adventure') 64bit
Библиотека кодирования : libebml v1.3.1 + libmatroska v1.4.2

Видео
Идентификатор : 1
Формат : AVC
Формат/Информация : Advanced Video Codec
Профиль формата : High@L4.1
Параметр CABAC формата : Да
Параметр RefFrames формата : 4 кадра
Идентификатор кодека : V_MPEG4/ISO/AVC
Продолжительность : 1 ч. 38 м.
Битрейт : 14,1 Мбит/сек
Ширина : 1920 пикселей
Высота : 816 пикселей
Соотношение сторон : 2,35:1
Режим частоты кадров : Постоянный
Частота кадров : 23,976 (24000/1001) кадра/сек
Цветовое пространство : YUV
Субдискретизация насыщенности : 4:2:0
Битовая глубина : 8 бит
Тип развёртки : Прогрессивная
Бит/(Пиксели*Кадры) : 0.376
Размер потока : 9,71 Гбайт (93%)
Библиотека кодирования : x264 core 146 r2538 121396c
Настройки программы : cabac=1 / ref=4 / deblock=1:-3:-2 / analyse=0x3:0x113 / me=umh / subme=11 / psy=1 / psy_rd=1.00:0.15 / mixed_ref=1 / me_range=32 / chroma_me=1 / trellis=2 / 8x8dct=1 / cqm=0 / deadzone=21,11 / fast_pskip=0 / chroma_qp_offset=-3 / threads=6 / lookahead_threads=1 / sliced_threads=0 / nr=0 / decimate=1 / interlaced=0 / bluray_compat=0 / constrained_intra=0 / bframes=7 / b_pyramid=2 / b_adapt=2 / b_bias=0 / direct=1 / weightb=1 / open_gop=0 / weightp=2 / keyint=230 / keyint_min=23 / scenecut=40 / intra_refresh=0 / rc_lookahead=40 / rc=crf / mbtree=0 / crf=20.4 / qcomp=0.60 / qpmin=0 / qpmax=69 / qpstep=4 / vbv_maxrate=62500 / vbv_bufsize=78125 / crf_max=0.0 / nal_hrd=none / filler=0 / ip_ratio=1.40 / pb_ratio=1.30 / aq=1:1.00
Язык : French
Default : Да
Forced : Нет

Аудио #1
Идентификатор : 2
Формат : AC-3
Формат/Информация : Audio Coding 3
Параметр Endianness формата : Big
Идентификатор кодека : A_AC3
Продолжительность : 1 ч. 38 м.
Вид битрейта : Постоянный
Битрейт : 256 Кбит/сек
Каналы : 2 канала
Расположение каналов : Front: L R
Частота : 48,0 КГц
Частота кадров : 31,250 кадров/сек (1536 SPF)
Битовая глубина : 16 бит
Метод сжатия : С потерями
Размер потока : 180 Мбайт (2%)
Заголовок : MVO HTB
Язык : Russian
ServiceKind/String : Complete Main
Default : Да
Forced : Нет

Аудио #2
Идентификатор : 3
Формат : AC-3
Формат/Информация : Audio Coding 3
Параметр Endianness формата : Big
Идентификатор кодека : A_AC3
Продолжительность : 1 ч. 38 м.
Вид битрейта : Постоянный
Битрейт : 256 Кбит/сек
Каналы : 2 канала
Расположение каналов : Front: L R
Частота : 48,0 КГц
Частота кадров : 31,250 кадров/сек (1536 SPF)
Битовая глубина : 16 бит
Метод сжатия : С потерями
Размер потока : 180 Мбайт (2%)
Заголовок : MVO RUSCICO
Язык : Russian
ServiceKind/String : Complete Main
Default : Нет
Forced : Нет

Аудио #3
Идентификатор : 4
Формат : AC-3
Формат/Информация : Audio Coding 3
Параметр Endianness формата : Big
Идентификатор кодека : A_AC3
Продолжительность : 1 ч. 38 м.
Вид битрейта : Постоянный
Битрейт : 256 Кбит/сек
Каналы : 2 канала
Расположение каналов : Front: L R
Частота : 48,0 КГц
Частота кадров : 31,250 кадров/сек (1536 SPF)
Битовая глубина : 16 бит
Метод сжатия : С потерями
Размер потока : 180 Мбайт (2%)
Заголовок : DVO OPT
Язык : Russian
ServiceKind/String : Complete Main
Default : Нет
Forced : Нет

Аудио #4
Идентификатор : 5
Формат : AC-3
Формат/Информация : Audio Coding 3
Параметр Endianness формата : Big
Идентификатор кодека : A_AC3
Продолжительность : 1 ч. 38 м.
Вид битрейта : Постоянный
Битрейт : 256 Кбит/сек
Каналы : 2 канала
Расположение каналов : Front: L R
Частота : 48,0 КГц
Частота кадров : 31,250 кадров/сек (1536 SPF)
Битовая глубина : 16 бит
Метод сжатия : С потерями
Размер потока : 180 Мбайт (2%)
Заголовок : original
Язык : French
ServiceKind/String : Complete Main
Default : Нет
Forced : Нет

Меню
00:00:00.000 : :Chapter 01
00:04:59.299 : :Chapter 02
00:10:00.600 : :Chapter 03
00:14:59.899 : :Chapter 04
00:20:00.199 : :Chapter 05
00:25:00.499 : :Chapter 06
00:29:59.798 : :Chapter 07
00:34:59.097 : :Chapter 08
00:40:00.398 : :Chapter 09
00:44:59.697 : :Chapter 10
00:49:59.997 : :Chapter 11
00:55:00.297 : :Chapter 12
00:59:59.596 : :Chapter 13
01:05:00.897 : :Chapter 14
01:10:00.196 : :Chapter 15
01:15:00.496 : :Chapter 16
01:19:59.795 : :Chapter 17
01:25:00.095 : :Chapter 18
01:30:00.395 : :Chapter 19
01:34:59.694 : :Chapter 20
01:38:17.057 : :Chapter 21
pb.wtf



Скачать Весёлая пасха через торрент http://s014.radikal.ru/i326/1710/3f/bcf479851f47.png Скачать фильм Весёлая пасха через торрент бесплантно в хорошем качестве О фильме: Герой Бельмондо, преуспевающий бизнесмен и неисправимый ловелас, проводив жену в аэропорт, тут же знакомится с юной прелестницей. ... 10 10 1
Info! Золотая раздача, скачанное не засчитывается.
Торрент: Зарегистрирован [2017-10-06 08:03] · скачан: 32 раз
Статус: √ проверено
Размер: 10.41 GB
Как cкачать? Как скачать Весёлая пасха через торрент | qTorrent

% Раздел Тема Автор DL S | L
Фильмы [HD 720p, 1080p] (Хороший звук DUB, MVO) [ 3.98 GB ] Весёлая пасха / Joyeuses Pâques [1984 BDRip 720p by msltel] 2 x MVO DVO msltel Скачать
1 | 0

28-11-2019 20:33  

Отключить всю рекламу на сайте

    Дорогой пользователь! Огромная просьба, поблагодарите релизера, оцените раздачу и оставьте свои комментарий, если Вы скачали Весёлая пасха через торрент бесплатно! Внесите свою лепту в развитие PiratBit!
    Комментировать посты могут только пользователи прошедшие не сложную регистрацию
    Показать сообщения:    

    Весёлая пасха через торрент
    Скачать бесплатно Весёлая пасха
    Весёлая пасха скачать торрент
    Весёлая пасха смотреть онлайн
    Cкачать фильм Весёлая пасха бесплатно
    Весёлая пасха скачать торрент в хорошем качестве
    Весёлая пасха смотреть онлайн бесплатно в хорошем качестве


    Вы не можете начинать темы
    Вы не можете отвечать на сообщения
    Вы не можете редактировать свои сообщения
    Вы не можете удалять свои сообщения
    Вы не можете голосовать в опросах
    Вы не можете прикреплять файлы к сообщениям
    Вы можете скачивать файлы