Всегда рабочее зеркало без VPN и Proxy просто перед .vidak.icu напиши любое слово или цифру, Пример http://54dt.vidak.icu

MVO

2 сезон

2 сезон

1

1 сезон

iTunes

2 сезон

13

1 сезон

Deluxe

pack

Рекомендуем

Пиратка

30

ВАЖНО

RePack

MK11

RePack

jed

RePack

fifa19

RePack

RDR2

RePack

NEED FOR SPEED™ PAYBACK

Кинопоиск HD

6 сезон

 Острые козырьки 6 сезон

Все сериалы

все сериалы на PB.wtf

RePack

FAR CRY 5

Anonymous, нам критически не хватает 5601 руб. на оплату серверов и переферии за Апрель, помоги нам пожалуйста, вся надежда только на тебя. В благодарность мы отключим тебе всю рекламу на сайте!

×
  
Magnet ссылка

Армстронг / Armstrong (Kerry Carlock, Nicholas Lund-Ulrich) [2017 г., боевик, WEB-DLRip, Любительский (многоголосый) | Синема УС] pb.wtf

Армстронг через торрент pb.wtf

Размер: 1.39 GB | Добавлен: 4 года 7 мес. назад | Торрент скачан:210 раз
Смотреть онлайн Армстронг | Скачать    Ребята, помогите собрать деньги на оплату серверов!!!

08-10-2017 03:06 Армстронг Скачать торрент  

Армстронг / Armstrong
Год выпуска: 2017
Страна: США
Жанр: боевик
Продолжительность: 01:25:34
Перевод: Любительский (многоголосый) | Синема УС
Субтитры: нет

Режиссер: Kerry Carlock, Nicholas Lund-Ulrich

rating

В ролях: Вики Жеди, Шоун Парсонс, Джейсон Антун, Christian Anderson, Камилль Чен

Описание: Во время своей первой смены новичок скорой помощи и ее партнер подбирают раненого супергероя и втягиваются в его миссию по спасению Лос-Анджелеса от зловещей организации.

Доп. информация: Присутствует реклама!

Качество: WEB-DLRip
Формат: AVI
Видео кодек: XviD
Аудио кодек: AC3
Видео: XviD,720x304, 23.976 fps, 1804 Кбит/с
Аудио#1: AC3,384 kb/s, 2 ch, 48.0 KHz
скриншот   скриншот   скриншот   скриншот  

General
Complete name : H:\релизы.торрентфайл\Armstrong.2017.P.WEB-DLRip.14OOMB_KOSHARA.avi
Format : AVI
Format/Info : Audio Video Interleave
File size : 1.39 GiB
Duration : 1h 25mn
Overall bit rate : 2 331 Kbps
Writing application : VirtualDubMod 1.5.10.2 (build 2540/release)
Writing library : VirtualDubMod build 2540/release

Video
ID : 0
Format : MPEG-4 Visual
Format profile : Advanced Simple@L5
Format settings, BVOP : 2
Format settings, QPel : No
Format settings, GMC : No warppoints
Format settings, Matrix : Default (MPEG)
Codec ID : XVID
Codec ID/Hint : XviD
Duration : 1h 25mn
Bit rate : 1 805 Kbps
Width : 720 pixels
Height : 304 pixels
Display aspect ratio : 2.35:1
Frame rate : 23.976 fps
Color space : YUV
Chroma subsampling : 4:2:0
Bit depth : 8 bits
Scan type : Progressive
Compression mode : Lossy
Bits/(Pixel*Frame) : 0.344
Stream size : 1.08 GiB (77%)
Writing library : XviD 1.2.1 (UTC 2008-12-04)

Audio #1
ID : 1
Format : AC-3
Format/Info : Audio Coding 3
Mode extension : CM (complete main)
Format settings, Endianness : Big
Codec ID : 2000
Duration : 1h 25mn
Bit rate mode : Constant
Bit rate : 384 Kbps
Channel(s) : 2 channels
Channel positions : Front: L R
Sampling rate : 48.0 KHz
Bit depth : 16 bits
Compression mode : Lossy
Stream size : 235 MiB (16%)
Alignment : Split accross interleaves
Interleave, duration : 42 ms (1.00 video frame)
Interleave, preload duration : 500 ms

Audio #2
ID : 2
Format : AC-3
Format/Info : Audio Coding 3
Mode extension : CM (complete main)
Format settings, Endianness : Big
Codec ID : 2000
Duration : 1h 25mn
Bit rate mode : Constant
Bit rate : 128 Kbps
Channel(s) : 2 channels
Channel positions : Front: L R
Sampling rate : 48.0 KHz
Bit depth : 16 bits
Compression mode : Lossy
Stream size : 78.3 MiB (5%)
Alignment : Split accross interleaves
Interleave, duration : 42 ms (1.00 video frame)
Interleave, preload duration : 500 ms

pb.wtf



Скачать Армстронг через торрент http://i89.fastpic.ru/big/2017/1008/fc/b9b20ecd0d94f8e3bf901c33e54526fc.png Скачать, смотреть онлайн Армстронг бесплантно в хорошем качестве Описание: Во время своей первой смены новичок скорой помощи и ее партнер подбирают раненого супергероя и втягиваются в его миссию по ... 6 10 6
Торрент: Зарегистрирован [2017-10-08 03:06] · скачан: 210 раз
Статус: T временная
Размер: 1.39 GB
Как cкачать? Как скачать Армстронг через торрент | UTorrent

28-11-2019 20:33  

Отключить всю рекламу на сайте

14-12-2017 17:24 Армстронг Скачать торрент  

    Дорогой пользователь! Огромная просьба, поблагодарите релизера, оцените раздачу и оставьте свои комментарий, если Вы скачали Армстронг через торрент бесплатно!
    Комментировать посты могут только пользователи прошедшие не сложную регистрацию
    Показать сообщения:    

    Армстронг через торрент
    Скачать бесплатно Армстронг
    Армстронг скачать торрент
    Армстронг смотреть онлайн
    Cкачать фильм Армстронг бесплатно
    Армстронг скачать торрент в хорошем качестве
    Армстронг смотреть онлайн бесплатно в хорошем качестве


    Вы не можете начинать темы
    Вы не можете отвечать на сообщения
    Вы не можете редактировать свои сообщения
    Вы не можете удалять свои сообщения
    Вы не можете голосовать в опросах
    Вы не можете прикреплять файлы к сообщениям
    Вы можете скачивать файлы