2 сезон

iTunes

1 сезон

1

iTunes

iTunes

iTunes

1 сезон

RePack

30

ИГРА 18+

pack

ВАЖНО

!!Акция!!

Alien_RageХит недели

RePack

MK11
pack

Забери бонус

RePack

jed

!!Акция!!

Alien_Rage

RePack

fifa19

RePack

Assassins Creed: Odyssey

RePack

NEED FOR SPEED™ PAYBACK

4 сезон

9 сезон

Бесстыжие 9 сезон

Все сериалы

все сериалы на PB.wtf

RePack

FAR CRY 5
  

Счастье из осколков / 1-2 серия из 2 (Роман Нестеренко) [2017 г., Мелодрама, WEB-DLRip] pb.wtf

Счастье из осколков через торрент pb.wtf

Размер: 2.73 GB | Добавлен: 3 года назад | Торрент скачан:107 раз
Скачать  

08-10-2017 03:44 Счастье из осколков Скачать торрент  

Счастье из осколков/1-2 серия из 2/
Год выпуска: 2017
Страна: Россия
Жанр: Мелодрама
Продолжительность: 2 x ~ 01:30:00
Субтитры: нет

Режиссер: Роман Нестеренко

В ролях: Александр Константинов, Дарья Егорова, Вячеслав Чепурченко, Анатолий Котенёв, Андрей Лебедев, Эльдар Калимулин, Яна Чигир, Евгения Вайс, Александр Загоскин (II), Екатерина Шмакова, Никита Кавуновский, Любовь Иванова (IV), Вера Тарасова (II), Дарья Буткеева, Мария Крашенинникова, Валентин Валл, Нина Антюхова, Евгения Шипова, Инна Крикова, Инна Гущина, Владимир Ширяев (II), Анна Осадчая, Ольга Сарычева, Павел Савинов, Сергей Неудачин, Алексей Жиров, Александр Базоев, Игорь Бровин, Андрей Кошевой

Описание: Жанна - дочь богатого бизнесмена, нетерпимая и избалованная особа. Саша - ее скромный водитель. Он должен содержать больную мать и младшего брата, поэтому покорно выносит все капризные выходки своей работодательницы. Жизнь Жанны складывается удачно. У нее любящий обеспеченный отец, который в ней души не чает, огромный дом, и скоро должна состояться ее свадьба с сыном лучшего друга отца - Кириллом. Сквозь призму своего высокомерия Жанна не замечает, как несправедливо относится к Саше. Однажды она и вовсе срывается и увольняет своего водителя без всякой причины. Жанна не подозревает, что человек, которого она ни во что не ставила, вскоре окажется ее последней надеждой на спасение...

Качество: WEB-DLRip
Формат: AVI
Видео кодек: XviD
Аудио кодек: AC3
Видео: XviD, ~ 1600 Кбит/с, 720x400
Аудио#1: AC3, 2 ch, 192 Кбит/с
скриншот   скриншот   скриншот   скриншот  

General
Complete name : H:\релизы.торрентфайл\Счастье из осколков.2017.WEB-DLRip.Files-x\01.Счастье из осколков.2017.WEB-DLRip.Files-x.avi
Format : AVI
Format/Info : Audio Video Interleave
File size : 1.36 GiB
Duration : 1h 31mn
Overall bit rate : 2 134 Kbps
Writing application : VirtualDubMod 1.5.10.3 | www.virtualdub-fr.org || (build 2550/release)
Writing library : VirtualDubMod build 2550/release

Video
ID : 0
Format : MPEG-4 Visual
Format profile : Advanced Simple@L5
Format settings, BVOP : 1
Format settings, QPel : No
Format settings, GMC : No warppoints
Format settings, Matrix : Custom
Codec ID : XVID
Codec ID/Hint : XviD
Duration : 1h 31mn
Bit rate : 1 933 Kbps
Width : 720 pixels
Height : 400 pixels
Display aspect ratio : 16:9
Frame rate : 25.000 fps
Color space : YUV
Chroma subsampling : 4:2:0
Bit depth : 8 bits
Scan type : Progressive
Compression mode : Lossy
Bits/(Pixel*Frame) : 0.268
Stream size : 1.24 GiB (91%)
Writing library : XviD 73

Audio
ID : 1
Format : AC-3
Format/Info : Audio Coding 3
Mode extension : CM (complete main)
Format settings, Endianness : Big
Codec ID : 2000
Duration : 1h 31mn
Bit rate mode : Constant
Bit rate : 192 Kbps
Channel(s) : 2 channels
Channel positions : Front: L R
Sampling rate : 48.0 KHz
Bit depth : 16 bits
Compression mode : Lossy
Stream size : 126 MiB (9%)
Alignment : Split accross interleaves
Interleave, duration : 40 ms (1.00 video frame)
Interleave, preload duration : 500 ms

pb.wtf



Скачать Счастье из осколков через торрент http://i89.fastpic.ru/big/2017/1007/49/f3d62a270908deb213409db68b6b2749.jpg Скачать фильм Счастье из осколков через торрент бесплантно в хорошем качестве Описание: Жанна - дочь богатого бизнесмена, нетерпимая и избалованная особа. Саша - ее скромный водитель. Он должен содержать больную мать ... 9.5 10 2
Торрент: Зарегистрирован [2017-10-08 03:44] · скачан: 107 раз
Статус: √ проверено
Размер: 2.73 GB
Как cкачать? Как скачать Счастье из осколков через торрент | qTorrent

28-11-2019 20:33  

Отключить всю рекламу на сайте

    Дорогой пользователь! Огромная просьба, поблагодарите релизера, оцените раздачу и оставьте свои комментарий, если Вы скачали Счастье из осколков через торрент бесплатно! Внесите свою лепту в развитие PiratBit!
    Комментировать посты могут только пользователи прошедшие не сложную регистрацию
    Показать сообщения:    

    Счастье из осколков через торрент
    Скачать бесплатно Счастье из осколков
    Счастье из осколков скачать торрент
    Счастье из осколков смотреть онлайн
    Cкачать фильм Счастье из осколков бесплатно
    Счастье из осколков скачать торрент в хорошем качестве
    Счастье из осколков смотреть онлайн бесплатно в хорошем качестве


    Вы не можете начинать темы
    Вы не можете отвечать на сообщения
    Вы не можете редактировать свои сообщения
    Вы не можете удалять свои сообщения
    Вы не можете голосовать в опросах
    Вы не можете прикреплять файлы к сообщениям
    Вы можете скачивать файлы