новый адрес пиратбит piratbit
Мега распродажа FORZA HORIZON 4 ULTIMATE+ВСЕ DLC+ОНЛАЙН всего за 499р. 349 руб. (супер цена). Внимание количество ограничено!!!

iTunes

1+1

iTunes

мы

iTunes

1

iTunes

Чернобыль

iTunes

Ральф против интернета

Лицензия

ПШазам

Лицензия

Игра престолов

Лицензия

30
pack

ВАЖНО

!!Акция!!

Alien_RageХит недели

RePack

Resident Evil 21

ИГРА 18+

pack

RePack

Metro:Exodus

!!Акция!!

Alien_Rage

RePack

fifa19

RePack

Assassins Creed: Odyssey

RePack

NEED FOR SPEED™ PAYBACK

3 сезон

9 сезон

Бесстыжие 9 сезон

Все сериалы

все сериалы на PB.wtf

RePack

FAR CRY 5
Ребята, катастрофически не хватает 1900р. для оплаты серверов за Октябрь (всвязи с блокировками трафик упал в 3 раза), 1-2р., выручайте.
  

Ваня (Анатолий Дудоров, Аркадий Шульман) [1958, СССР, драма, SATRip от AVP Studio] pb.wtf

Ваня через торрент pb.wtf

Размер: 745 MB | Добавлен: 2 года 1 мес. назад | Торрент скачан:16 раз
Скачать  

08-10-2017 08:41 Ваня Скачать торрент  

Ваня
Страна: СССР
Производство: Свердловская к/ст

Жанр: драма
Год выпуска: 1958
Продолжительность: 01:29:50

Перевод: Не требуется
Cубтитры: нет
Оригинальная аудиодорожка: русский

Режиссер: Анатолий Дудоров, Аркадий Шульман

В ролях:
Лев Жуков, Наталья Защипина, Иван Дмитриев, Григорий Белов, Ольга Викландт, Лев Дуров, Юрий Лебедко, Дмитрий Гошев, Юрий Саранцев, Раиса Куркина, Лев Перфилов...
Об актёрах подробней

Описание:
Рано потеряв родителей, Иван стал жить у дяди. Дядя был человеком добрым, но усыновить пацана против воли жены не мог, видел, что она не любит его. А Ваня чувствовал это и тянулся к чужим людям. Так случайно он познакомился с Яшкой. Душевный парень сразу же пообещал Ване, что устроит его на работу. Об этом Ваня даже и не мечтал. Знакомство с Леной (Наталья Защипина) и вовсе окрылило парня. С ней ему хорошо и спокойно. Ей он доверяет свои самые сокровенные мечты. Но вскоре случилось неожиданное. У тетушки пропали деньги. Пришел милиционер, а дальше все прошло быстро и, в общем-то, по закону. В исправительно-трудовой колонии Ваня пробыл два года и вернулся в родной город с твердым намерением учиться и работать. Напрасно думал Яшка, что теперь они связаны одной ниточкой.

Источник: DVB
Качество видео: SATRip
Формат видео: AVI

Видео: 640x480 (4:3), 25 fps, XviD ~ 1022 kbps avg, 0.133 bit/pixel
Аудио: 48 kHz, MP3 2.0, 128 kbps

Раздача от:
Общее
Полное имя : Vanya.1958.SATRip-745_[New-team]_by_AVP_Studio.avi
Формат : AVI
Формат/Информация : Audio Video Interleave
Размер файла : 745 Мбайт
Продолжительность : 1 ч. 29 м.
Общий поток : 1159 Кбит/сек
Программа кодирования : VirtualDubMod 1.5.10.3 | www.virtualdub-fr.org || (build 2550/release)
Библиотека кодирования : VirtualDubMod build 2550/release

Видео
Идентификатор : 0
Формат : MPEG-4 Visual
Профиль формата : Advanced Simple@L5
Параметр BVOP формата : 1
Параметр QPel формата : Нет
Параметр GMC формата : Без точки перехода
Параметр матрицы формата : Выборочная
Идентификатор кодека : XVID
Идентификатор кодека/Подсказка : XviD
Продолжительность : 1 ч. 29 м.
Битрейт : 1022 Кбит/сек
Ширина : 640 пикселей
Высота : 480 пикселей
Соотношение сторон : 4:3
Частота кадров : 25,000 кадров/сек
Цветовое пространство : YUV
Субдискретизация насыщенности : 4:2:0
Битовая глубина : 8 бит
Тип развёртки : Прогрессивная
Метод сжатия : С потерями
Бит/(Пиксели*Кадры) : 0.133
Размер потока : 656 Мбайт (88%)
Библиотека кодирования : XviD 73

Аудио
Идентификатор : 1
Формат : MPEG Audio
Версия формата : Version 1
Профиль формата : Layer 3
Идентификатор кодека : 55
Идентификатор кодека/Подсказка : MP3
Продолжительность : 1 ч. 29 м.
Вид битрейта : Постоянный
Битрейт : 128 Кбит/сек
Каналы : 2 канала
Частота : 48,0 КГц
Метод сжатия : С потерями
Размер потока : 82,2 Мбайт (11%)
Выравнивание : Соединение по промежуткам
Продолжительность промежутка : 40 мс. (1,00 видеокадр)
Время предзагрузки промежутка : 504 мс.
Библиотека кодирования : LAME3.99r
Настройки программы : -m s -V 4 -q 2 -lowpass 17 -b 128
pb.wtf



Скачать Ваня через торрент http://s009.radikal.ru/i309/1710/8e/9faba6ebdd58.png Скачать фильм Ваня через торрент бесплантно в хорошем качестве Описание:Рано потеряв родителей, Иван стал жить у дяди. Дядя был человеком добрым, но усыновить пацана против воли жены не мог, видел, что ... 5 10 1
Info! Золотая раздача, скачанное не засчитывается.
Торрент: Зарегистрирован [2017-10-08 08:41] · скачан: 16 раз
Статус: √ проверено
Размер: 745 MB
Как cкачать? Как скачать Ваня через торрент | qTorrent

% Раздел Тема Автор DL S | L
Зарубежные сериалы [ 43.04 GB ] Тихий океан / Pacific The [2010 военный HD] Shmel Скачать
1 | 0
Сборники на DVD и Сиквелы [DVDrip, WEB-DLRip, HDrip, BDRip] [ 13.08 GB ] Пила 123456 / Saw 123456 [2004-2009 BDRip] SD Скачать
1 | 0
Клан Сопрано [ 19.19 GB ] Клан Сопрано - Сезон: 1 [13 серий] / The Sopranos - Season 1 [1999 HDTVRip 720p] brown1nggg Скачать
1 | 0
Фильмографии [ 45.69 GB ] Жан-Клод Ван Дамм. Фильмография 1 / Jean-Claude Van Damme. Filmography 1 [1986-2008; боевые искусства ; DVDRip] nobana Скачать
1 | 0
Фильмы 2009 [ 2.22 GB ] Господин Никто / Mr. Nobody [2009 BDRip ] ACFIORENTINA Скачать
1 | 0
Фильмы 2009 [ 1.37 GB ] Господин Никто / Mr. Nobody [2009 HDRip] aleksander2009 Скачать
1 | 0
Фильмы 2006-2008 [ 746 MB ] Последний отпуск / Last Holiday [2006 HDRip] Venxxx Скачать
1 | 0


>> Регистрируемся здесь <<






Отзывы и комментарии о схеме читаем и пишем здесь: ---> Отзывы и комментарии о схеме

Новые благодарочки в телеграм довольных пользователей:
скриншот   скриншот   скриншот   скриншот   скриншот
    Дорогой пользователь! Огромная просьба, поблагодарите релизера, оцените раздачу и оставьте свои комментарий, если Вы скачали Ваня через торрент бесплатно! Внесите свою лепту в развитие PiratBit!
    Комментировать посты могут только пользователи прошедшие не сложную регистрацию
    Показать сообщения:    

    Ваня через торрент
    Скачать бесплатно Ваня
    Ваня скачать торрент
    Ваня смотреть онлайн
    Cкачать фильм Ваня бесплатно
    Ваня скачать торрент в хорошем качестве
    Ваня смотреть онлайн бесплатно в хорошем качестве


    Вы не можете начинать темы
    Вы не можете отвечать на сообщения
    Вы не можете редактировать свои сообщения
    Вы не можете удалять свои сообщения
    Вы не можете голосовать в опросах
    Вы не можете прикреплять файлы к сообщениям
    Вы можете скачивать файлы