2 сезон

iTunes

1 сезон

1

iTunes

iTunes

iTunes

1 сезон

RePack

30

ИГРА 18+

pack

ВАЖНО

!!Акция!!

Alien_RageХит недели

RePack

MK11
pack

Забери бонус

RePack

jed

!!Акция!!

Alien_Rage

RePack

fifa19

RePack

Assassins Creed: Odyssey

RePack

NEED FOR SPEED™ PAYBACK

4 сезон

9 сезон

Бесстыжие 9 сезон

Все сериалы

все сериалы на PB.wtf

RePack

FAR CRY 5
  

Как извести любовницу за семь дней / Серии 1-4 из 4 (Валерия Ивановская) [2017, Мелодрама, WEB-DLRip] pb.wtf

Как извести любовницу за семь дней через торрент pb.wtf

Размер: 2.34 GB | Добавлен: 3 года назад | Торрент скачан:127 раз
Скачать  

08-10-2017 12:17 Как извести любовницу за семь дней Скачать торрент  

Как извести любовницу за семь дней
Год выпуска: 2017
Страна: Россия
Жанр: Мелодрама
Продолжительность: 4 х 00:46:00
Перевод: Не требуется
Субтитры: отсутствуют

Режиссер: Валерия Ивановская



В ролях:

Светлана Колпакова, Ольга Медынич, Олег Масленников-Войтов, Александр Никитин, Анна Попова, Кирилл Гребенщиков, Алексей Секирин

Описание:

Аня - многодетная мать. Яна - убежденная "чайлдфри". У них диаметрально противоположные представления о счастье, зато одинаковые - о дружбе. Они вместе с детского сада, не мыслят жизни одна без другой и давно смирились с тем, что в семейных вопросах никогда не поймут друг друга. Однажды Аня выясняет, что у мужа Славы появилась любовница. Первая мысль - развод. Но уже на завтра Ане кажется, что просто так отдать другой то, что строилось почти двадцать лет, - непозволительная роскошь. Когда Слава с любовницей Юлей едут на курорт, Аня решает поехать за ними. Присмотреть за ее четырьмя детьми она уговаривает Яну. Яна в трансе: мысль остаться наедине с оравой детей кажется ей чудовищной, но потом приходит в голову потрясающая идея использовать ситуацию в своих целях.

Качество: WEB-DLRip
Формат: AVI
Видео кодек: XviD
Аудио кодек: AC3

Видео: ~ 1600 Кбит/с, 720x400
Аудио: AC3, 2 ch, 192 Кбит/с
скриншот   скриншот   скриншот   скриншот  

Общее
Полное имя : D:\Kak.izvesti.liubovnicu.za.7.dnej.2017.WEB-DLRip.Files-x\01.Kak.izvesti.liubovnicu.za.7.dnej.2017.WEB-DLRip.Files-x.avi
Формат : AVI
Формат/Информация : Audio Video Interleave
Размер файла : 600 Мбайт
Продолжительность : 46 м. 11 с.
Общий поток : 1816 Кбит/сек
Программа кодирования : VirtualDubMod 1.5.10.3 | www.virtualdub-fr.org || (build 2550/release)
Библиотека кодирования : VirtualDubMod build 2550/release

Видео
Идентификатор : 0
Формат : MPEG-4 Visual
Профиль формата : Advanced Simple@L5
Параметр BVOP формата : 1
Параметр QPel формата : Нет
Параметр GMC формата : Без точки перехода
Параметр матрицы формата : Выборочная
Идентификатор кодека : XVID
Идентификатор кодека/Подсказка : XviD
Продолжительность : 46 м. 11 с.
Битрейт : 1615 Кбит/сек
Ширина : 720 пикселей
Высота : 400 пикселей
Соотношение сторон : 16:9
Частота кадров : 25,000 кадров/сек
Цветовое пространство : YUV
Субдискретизация насыщенности : 4:2:0
Битовая глубина : 8 бит
Тип развёртки : Прогрессивная
Метод сжатия : С потерями
Бит/(Пиксели*Кадры) : 0.224
Размер потока : 533 Мбайт (89%)
Библиотека кодирования : XviD 73

Аудио
Идентификатор : 1
Формат : AC-3
Формат/Информация : Audio Coding 3
Расширение режима : CM (complete main)
Параметр Endianness формата : Big
Идентификатор кодека : 2000
Продолжительность : 46 м. 11 с.
Вид битрейта : Постоянный
Битрейт : 192 Кбит/сек
Каналы : 2 канала
Расположение каналов : Front: L R
Частота : 48,0 КГц
Частота кадров : 31,250 кадров/сек (1536 spf)
Метод сжатия : С потерями
Размер потока : 63,4 Мбайт (11%)
Выравнивание : Разделение по промежуткам
Продолжительность промежутка : 40 мс. (1,00 видеокадр)
Время предзагрузки промежутка : 500 мс.

pb.wtf



Скачать Как извести любовницу за семь дней через торрент http://i92.fastpic.ru/big/2017/1007/a4/4a5311391ffc17120bc8eded28e6a8a4.jpg Скачать фильм Как извести любовницу за семь дней через торрент бесплантно в хорошем качестве Описание: Аня - многодетная мать. Яна - убежденная "чайлдфри". У них диаметрально противоположные представления о счастье, зато одинаковые ... 10 10 4
Торрент: Зарегистрирован [2017-10-08 12:17] · скачан: 127 раз
Статус: √ проверено
Размер: 2.34 GB
Как cкачать? Как скачать Как извести любовницу за семь дней через торрент | qTorrent

% Раздел Тема Автор DL S | L
Наши сериалы [ 4.67 GB ] Как извести любовницу за семь дней / Серии 1-4 из 4 [2017 Мело WEB-DL 1080p] Леонид Ильич Скачать
2 | 0
Наши сериалы [ 2.44 GB ] Как извести любовницу за семь дней / Серия 1-4 из 4 / [2017 Мело SATRip] oleg8 Скачать
1 | 0

28-11-2019 20:33  

Отключить всю рекламу на сайте

08-10-2017 20:20 Как извести любовницу за семь дней Скачать торрент  

как обычно щедеврpb.wtf



09-10-2017 02:11 Как извести любовницу за семь дней Скачать торрент  

most live писал(а):

как обычно щедевр

Естественно.pb.wtf



    Дорогой пользователь! Огромная просьба, поблагодарите релизера, оцените раздачу и оставьте свои комментарий, если Вы скачали Как извести любовницу за семь дней через торрент бесплатно! Внесите свою лепту в развитие PiratBit!
    Комментировать посты могут только пользователи прошедшие не сложную регистрацию
    Показать сообщения:    

    Как извести любовницу за семь дней через торрент
    Скачать бесплатно Как извести любовницу за семь дней
    Как извести любовницу за семь дней скачать торрент
    Как извести любовницу за семь дней смотреть онлайн
    Cкачать фильм Как извести любовницу за семь дней бесплатно
    Как извести любовницу за семь дней скачать торрент в хорошем качестве
    Как извести любовницу за семь дней смотреть онлайн бесплатно в хорошем качестве


    Вы не можете начинать темы
    Вы не можете отвечать на сообщения
    Вы не можете редактировать свои сообщения
    Вы не можете удалять свои сообщения
    Вы не можете голосовать в опросах
    Вы не можете прикреплять файлы к сообщениям
    Вы можете скачивать файлы