2 сезон

iTunes

MVO

1

2 сезон

iTunes

iTunes

1 сезон

RePack

30

Ultimate

ВАЖНО

ИГРА 18+

pack

RePack

MK11
pack

Легкие деньги

RePack

jed

RePack

fifa19

RePack

RDR2

RePack

NEED FOR SPEED™ PAYBACK

4 сезон

9 сезон

Бесстыжие 9 сезон

Все сериалы

все сериалы на PB.wtf

RePack

FAR CRY 5

Anonymous, доброй ночи, мы не успеваем собрать деньги на оплату серверов за декабрь и январь, помогите нам пожалуйста в это трудное время. В качестве благодарности мы отключим Вам всю рекламу на сайте (укажите свой ник в строку Ваше имя)!

×
  
Magnet ссылка

Весь этот мир / Everything, Everything (Стелла Меги / Stella Meghie) [2017, США, драма, мелодрама, BDRip-AVC] Dub [Лицензия] pb.wtf

Весь этот мир через торрент pb.wtf

Раздают: 1 [ 0 KB/s ]
Размер: 1.38 GB | Добавлен: 3 года 3 мес. назад | Торрент скачан:158 раз
Скачать  

08-10-2017 14:28 Весь этот мир Скачать торрент  

Весь этот мир
Everything, Everything

«Risk everything... for love»


Страна: США
Жанр: драма, мелодрама

Год выпуска: 2017
Продолжительность: 01:36:32

Перевод: Профессиональный (полное дублирование) [Blu-ray EUR]
Субтитры: русские (форсированные, полные)
Оригинальная аудиодорожка: нет

Режиссер: Стелла Меги / Stella Meghie

В ролях: Амандла Стенберг, Ник Дж. Робинсон, Аника Нони Роуз, Ана де ла Регера, Тэйлор Хиксон, Данубе Эрмосильо, Дэн Пэйн, Фиона Лоуи, Сэйдж Броклбэнк, Роберт Лоуренсон, Питер Бенсон, Франсуаза Йип

Описание:
Что, если ты не можешь коснуться ни единого предмета из внешнего мира? Тебе не сделать ни единого глотка свежего воздуха, и ни один луч солнца не согреет твоего лица... а соседский мальчишка никогда не поцелует тебя.



Релиз:

Автор рипа: stalkerok | Моя группа

Сэмпл

Качество видео: BDRip-AVC [Everything, Everything (2017) Blu-ray Disc [EUR] - TAiCHi]
Формат видео: MKV
Видео кодек: AVC
Аудио кодек: AC3
Видео: 1601 Кбит/сек, 1024x576 (16:9), 23,976 кадр/сек, AVC
Аудио: русский, 448 Кбит/сек, 48 КГц, 5.1, AC3
Навигация по главам: есть

x264 [info]: frame I:1100 Avg QP:16.10 size: 66229
x264 [info]: frame P:26871 Avg QP:18.80 size: 18717
x264 [info]: frame B:110903 Avg QP:20.59 size: 5267

General
Unique ID : 240029179130901059064600751312263770473 (0xB493F0387563251DB5462ED912B4F169)
Complete name : M:\!Rips2017\Everything, Everything\Everything.Everything.2017.BDRip-AVC.RUS.stalkerok.new-team.mkv
Format : Matroska
Format version : Version 4 / Version 2
File size : 1.38 GiB
Duration : 1 h 36 min
Overall bit rate : 2 052 kb/s
Movie name : Everything, Everything (2017) (Rip by stalkerok)
Encoded date : UTC 2017-10-08 13:57:08
Writing application : mkvmerge v8.6.1 ('Flying') 64bit
Writing library : libebml v1.3.3 + libmatroska v1.4.4

Video
ID : 1
Format : AVC
Format/Info : Advanced Video Codec
Format profile : High@L4.1
Format settings, CABAC : Yes
Format settings, ReFrames : 14 frames
Codec ID : V_MPEG4/ISO/AVC
Duration : 1 h 36 min
Bit rate : 1 602 kb/s
Width : 1 024 pixels
Height : 576 pixels
Display aspect ratio : 16:9
Frame rate mode : Constant
Frame rate : 23.976 (24000/1001) FPS
Color space : YUV
Chroma subsampling : 4:2:0
Bit depth : 8 bits
Scan type : Progressive
Bits/(Pixel*Frame) : 0.113
Stream size : 1.08 GiB (78%)
Title : Everything, Everything (2017) (Rip by stalkerok)
Writing library : x264 core 150 r2833kMod df79067
Encoding settings : cabac=1 / ref=14 / deblock=1:-3:-2 / analyse=0x3:0x133 / me=umh / subme=11 / psy=1 / fade_compensate=0.00 / psy_rd=1.00:0.00 / mixed_ref=1 / me_range=32 / chroma_me=1 / trellis=2 / 8x8dct=1 / cqm=0 / deadzone=21,11 / fast_pskip=0 / chroma_qp_offset=-2 / threads=12 / lookahead_threads=3 / sliced_threads=0 / nr=0 / decimate=1 / interlaced=0 / bluray_compat=0 / constrained_intra=0 / bframes=14 / b_pyramid=2 / b_adapt=2 / b_bias=0 / direct=3 / weightb=1 / open_gop=0 / weightp=2 / keyint=240 / keyint_min=23 / scenecut=40 / intra_refresh=0 / rc_lookahead=60 / rc=crf / mbtree=0 / crf=18.6000 / qcomp=0.65 / qpmin=0 / qpmax=69 / qpstep=4 / vbv_maxrate=50000 / vbv_bufsize=62500 / crf_max=0.0 / nal_hrd=none / filler=0 / ip_ratio=1.40 / pb_ratio=1.25 / aq=3:0.80 / zones=129796,138873,q=32
Default : Yes
Forced : No

Audio
ID : 2
Format : AC-3
Format/Info : Audio Coding 3
Mode extension : CM (complete main)
Format settings, Endianness : Big
Codec ID : A_AC3
Duration : 1 h 36 min
Bit rate mode : Constant
Bit rate : 448 kb/s
Channel(s) : 6 channels
Channel positions : Front: L C R, Side: L R, LFE
Sampling rate : 48.0 kHz
Frame rate : 31.250 FPS (1536 spf)
Compression mode : Lossy
Stream size : 309 MiB (22%)
Language : Russian
Default : Yes
Forced : No

Text #1
ID : 3
Format : UTF-8
Codec ID : S_TEXT/UTF8
Codec ID/Info : UTF-8 Plain Text
Duration : 1 h 28 min
Bit rate : 5 b/s
Count of elements : 76
Stream size : 3.81 KiB (0%)
Title : Forced
Language : Russian
Default : Yes
Forced : No

Text #2
ID : 4
Format : UTF-8
Codec ID : S_TEXT/UTF8
Codec ID/Info : UTF-8 Plain Text
Duration : 1 h 35 min
Bit rate : 68 b/s
Count of elements : 1021
Stream size : 48.0 KiB (0%)
Language : Russian
Default : No
Forced : No

Menu
00:00:00.000 : en:Chapter 1
00:09:33.239 : en:Chapter 2
00:20:06.830 : en:Chapter 3
00:29:39.861 : en:Chapter 4
00:40:58.038 : en:Chapter 5
00:51:25.373 : en:Chapter 6
01:00:01.306 : en:Chapter 7
01:10:23.344 : en:Chapter 8
01:19:01.737 : en:Chapter 9
01:30:15.243 : en:Chapter 10
скриншот   скриншот   скриншот   скриншот   скриншот   скриншот   скриншот   скриншот  
pb.wtf



Скачать Весь этот мир через торрент http://i6.imageban.ru/out/2017/09/18/2ff75c0c358795c5946784cc1680714d.png Скачать фильм Весь этот мир через торрент бесплантно в хорошем качестве Описание:Что, если ты не можешь коснуться ни единого предмета из внешнего мира? Тебе не сделать ни единого глотка свежего воздуха, и ни ... 9.5 10 6
Info! Золотая раздача, скачанное не засчитывается.
Торрент: Зарегистрирован [2017-10-08 14:28] · скачан: 158 раз
Статус: √ проверено
Размер: 1.38 GB
Как cкачать? Как скачать Весь этот мир через торрент | UTorrent

% Раздел Тема Автор DL S | L
Фильмы 2017 [DVDrip, WEB-DLRip, HDrip] (DUB, MVO) [ 746 MB ] Весь этот мир / Everything Everything [2017 BDRip-AVC] sokol_ok Скачать
2 | 0
Фильмы 2017 [DVDrip, WEB-DLRip, HDrip] (DUB, MVO) [ 2.18 GB ] Весь этот мир / Everything Everything [2017 BDRip-AVC] sokol_ok Скачать
2 | 0
Фильмы [HD 720p, 1080p] (Хороший звук DUB, MVO) [ 5.78 GB ] Весь этот мир / Everything Everything [2017 BDRip 720р ] [] DJASFUL Скачать
1 | 0
Фильмы (Blu-ray, BD-Remux, HDDVD) [ 31.07 GB ] Весь этот мир / Everything Everything [2017 Blu-ray ] Бумер Скачать
1 | 0
Фильмы 2017 [DVDrip, WEB-DLRip, HDrip] (DUB, MVO) [ 1.46 GB ] Весь этот мир / Everything Everything [2017 BDRip] - [] Twi7ter Скачать
1 | 0
Фильмы [HD 720p, 1080p] (Хороший звук DUB, MVO) [ 11.1 GB ] Весь этот мир / Everything Everything [2017 BDRip 1080p] bober100 Скачать
1 | 0
Фильмы 2017 [DVDrip, WEB-DLRip, HDrip] (DUB, MVO) [ 1.91 GB ] Весь этот мир / Everything Everything [2017 BDRip-AVC] bober100 Скачать
1 | 0

28-11-2019 20:33  

Отключить всю рекламу на сайте

25-10-2017 07:01 Весь этот мир Скачать торрент  



pb.wtf



    Дорогой пользователь! Огромная просьба, поблагодарите релизера, оцените раздачу и оставьте свои комментарий, если Вы скачали Весь этот мир через торрент бесплатно! Внесите свою лепту в развитие PiratBit!
    Комментировать посты могут только пользователи прошедшие не сложную регистрацию
    Показать сообщения:    

    Весь этот мир через торрент
    Скачать бесплатно Весь этот мир
    Весь этот мир скачать торрент
    Весь этот мир смотреть онлайн
    Cкачать фильм Весь этот мир бесплатно
    Весь этот мир скачать торрент в хорошем качестве
    Весь этот мир смотреть онлайн бесплатно в хорошем качестве


    Вы не можете начинать темы
    Вы не можете отвечать на сообщения
    Вы не можете редактировать свои сообщения
    Вы не можете удалять свои сообщения
    Вы не можете голосовать в опросах
    Вы не можете прикреплять файлы к сообщениям
    Вы можете скачивать файлы