Ссылка на приватное зеркало нашего сайта всего за 1$. Внимание количество ограничено!!!

2 сезон

iTunes

1 сезон

1

iTunes

iTunes

iTunes

1 сезон

RePack

30

ИГРА 18+

pack

ВАЖНО

!!Акция!!

Alien_RageХит недели

RePack

MK11
pack

Забери бонус

RePack

jed

!!Акция!!

Alien_Rage

RePack

fifa19

RePack

Assassins Creed: Odyssey

RePack

NEED FOR SPEED™ PAYBACK

4 сезон

9 сезон

Бесстыжие 9 сезон

Все сериалы

все сериалы на PB.wtf

RePack

FAR CRY 5
  

Беспредел / Autoreiji (Такеши Китано) [2010, криминал, драма, триллер, BDRip 1080p by msltel] MVO, AVO pb.wtf

Беспредел через торрент pb.wtf

Размер: 14.04 GB | Добавлен: 3 года назад | Торрент скачан:112 раз
Скачать  

09-10-2017 05:57 Беспредел Скачать торрент  

Название: Беспредел
Оригинальное название: Autoreiji
Год выпуска: 2010
Страна: Япония
Жанр: криминал, драма, триллер
Продолжительность: 01:49:43
Перевод: профессиональный многоголосый, авторский

Режиссер: Такеши Китано
В ролях: Такеши Китано, Киппэй Сиина, Рё Касэ, Томокадзу Миура, Дзюн Кунимура, Тэтта Сугимото, Такаши Цукамото, Юка Итая, Хидео Накано, Рэндзи Исибаси, Фумиё Кохината, Соичиро Китамура, Кента Элизабет III, Токио Эмото, Акико Кобаяши, Масаки Миура, Кенджи Моринага, Джанко Накамура, Юничи Нитта, Кенджи Охара, Тадаши Саката, Эйхи Шиина, Макита Спортс, Юя Такаяма, Ёкио Танахаши, Тсутому Тсуджи, Томо Учино, Наоко Ватанабе

О фильме: В безжалостной борьбе за Влacть несколько кланов якудза оспаривают расположение крёстного отца. Главари поднимаются по иерархической лестнице в организации, не пренебрегая заговорами и лживыми клятвами верности. Опытный якудза Отомо наблюдает за развитием карьеры своих товарищей. Оставив позади замысловатые татуировки и отрубленные пальцы, они штурмуют мир финансов. В мире коррупции, где царят предательство и месть, ни на минуту не прекращается борьба за достижение вершины или просто за выживание. Это мир, где героев не существует...



Качество: BDRip 1080p
Формат: MKV
Видео: MPEG-4 AVC, 13.8 Mбит/с, 1920x818, 23.976 кадр/с
Аудио 1: русский, DTS, 1509 kbps, 6 ch [профессиональный многоголосый]
Аудио 2: русский, DTS, 1509 kbps, 6 ch [авторский, Юрий Сербин]
Аудио 3: японский, DTS, 1509 kbps, 6 ch, 48 kHz [оригинал]
Субтитры 1: русские
Субтитры 2: английские
Имеются неименованные главы/чаптеры.
Общее
Уникальный идентификатор : 219612303447123876122923732885393167874 (0xA537CA87EB6551AC95C8243D095CD602)
Полное имя : D:\Video\Беспредел.2010.BDRip.1080p by msltel.mkv
Формат : Matroska
Версия формата : Version 4 / Version 2
Размер файла : 14,0 Гбайт
Продолжительность : 1 ч. 49 м.
Общий поток : 18,3 Мбит/сек
Название фильма : Rip by msltel
Дата кодирования : UTC 2017-10-08 10:28:26
Программа кодирования : mkvmerge v8.2.0 ('World of Adventure') 64bit
Библиотека кодирования : libebml v1.3.1 + libmatroska v1.4.2

Видео
Идентификатор : 1
Формат : AVC
Формат/Информация : Advanced Video Codec
Профиль формата : High@L4.1
Параметр CABAC формата : Да
Параметр RefFrames формата : 4 кадра
Идентификатор кодека : V_MPEG4/ISO/AVC
Продолжительность : 1 ч. 49 м.
Битрейт : 13,8 Мбит/сек
Ширина : 1920 пикселей
Высота : 818 пикселей
Соотношение сторон : 2,35:1
Режим частоты кадров : Постоянный
Частота кадров : 23,976 (24000/1001) кадра/сек
Цветовое пространство : YUV
Субдискретизация насыщенности : 4:2:0
Битовая глубина : 8 бит
Тип развёртки : Прогрессивная
Бит/(Пиксели*Кадры) : 0.366
Размер потока : 10,6 Гбайт (75%)
Библиотека кодирования : x264 core 146 r2538 121396c
Настройки программы : cabac=1 / ref=4 / deblock=1:-3:-2 / analyse=0x3:0x113 / me=umh / subme=11 / psy=1 / psy_rd=1.00:0.15 / mixed_ref=1 / me_range=32 / chroma_me=1 / trellis=2 / 8x8dct=1 / cqm=0 / deadzone=21,11 / fast_pskip=0 / chroma_qp_offset=-3 / threads=6 / lookahead_threads=1 / sliced_threads=0 / nr=0 / decimate=1 / interlaced=0 / bluray_compat=0 / constrained_intra=0 / bframes=11 / b_pyramid=2 / b_adapt=2 / b_bias=0 / direct=1 / weightb=1 / open_gop=0 / weightp=2 / keyint=240 / keyint_min=23 / scenecut=40 / intra_refresh=0 / rc_lookahead=40 / rc=crf / mbtree=0 / crf=18.2 / qcomp=0.60 / qpmin=0 / qpmax=69 / qpstep=4 / vbv_maxrate=62500 / vbv_bufsize=78125 / crf_max=0.0 / nal_hrd=none / filler=0 / ip_ratio=1.40 / pb_ratio=1.30 / aq=1:1.00
Язык : Japanese
Default : Да
Forced : Нет

Аудио #1
Идентификатор : 2
Формат : DTS
Формат/Информация : Digital Theater Systems
Режим : 16
Параметр Endianness формата : Big
Идентификатор кодека : A_DTS
Продолжительность : 1 ч. 49 м.
Вид битрейта : Постоянный
Битрейт : 1509 Кбит/сек
Каналы : 6 каналов
Расположение каналов : Front: L C R, Side: L R, LFE
Частота : 48,0 КГц
Частота кадров : 93,750 кадра/сек (512 SPF)
Битовая глубина : 24 бит
Метод сжатия : С потерями
Размер потока : 1,16 Гбайт (8%)
Заголовок : MVO
Язык : Russian
Default : Да
Forced : Нет

Аудио #2
Идентификатор : 3
Формат : DTS
Формат/Информация : Digital Theater Systems
Режим : 16
Параметр Endianness формата : Big
Идентификатор кодека : A_DTS
Продолжительность : 1 ч. 49 м.
Вид битрейта : Постоянный
Битрейт : 1509 Кбит/сек
Каналы : 6 каналов
Расположение каналов : Front: L C R, Side: L R, LFE
Частота : 48,0 КГц
Частота кадров : 93,750 кадра/сек (512 SPF)
Битовая глубина : 16 бит
Метод сжатия : С потерями
Размер потока : 1,16 Гбайт (8%)
Заголовок : Юрий Сербин
Язык : Russian
Default : Нет
Forced : Нет

Аудио #3
Идентификатор : 4
Формат : DTS
Формат/Информация : Digital Theater Systems
Режим : 16
Параметр Endianness формата : Big
Идентификатор кодека : A_DTS
Продолжительность : 1 ч. 49 м.
Вид битрейта : Постоянный
Битрейт : 1509 Кбит/сек
Каналы : 6 каналов
Расположение каналов : Front: L C R, Side: L R, LFE
Частота : 48,0 КГц
Частота кадров : 93,750 кадра/сек (512 SPF)
Битовая глубина : 16 бит
Метод сжатия : С потерями
Размер потока : 1,16 Гбайт (8%)
Заголовок : original
Язык : Japanese
Default : Нет
Forced : Нет

Текст #1
Идентификатор : 5
Формат : UTF-8
Идентификатор кодека : S_TEXT/UTF8
Идентификатор кодека/Информация : UTF-8 Plain Text
Продолжительность : 1 ч. 44 м.
Битрейт : 48 бит/сек
ElementCount : 827
Размер потока : 37,3 Кбайт (0%)
Заголовок : русские
Язык : Russian
Default : Нет
Forced : Нет

Текст #2
Идентификатор : 6
Формат : UTF-8
Идентификатор кодека : S_TEXT/UTF8
Идентификатор кодека/Информация : UTF-8 Plain Text
Продолжительность : 1 ч. 42 м.
Битрейт : 26 бит/сек
ElementCount : 845
Размер потока : 20,1 Кбайт (0%)
Заголовок : английские
Язык : English
Default : Нет
Forced : Нет

Меню
00:00:00.000 : :0:00:00.000
00:09:07.797 : :0:09:07.797
00:23:29.741 : :0:23:29.741
00:32:28.905 : :0:32:28.905
00:44:46.225 : :0:44:46.225
00:51:16.907 : :0:51:16.907
01:06:02.416 : :1:06:02.416
01:14:01.895 : :1:14:01.895
01:20:56.685 : :1:20:56.685
01:29:52.845 : :1:29:52.845
01:39:46.814 : :1:39:46.814
01:45:15.851 : :1:45:15.851
01:49:13.547 : :1:49:13.547
pb.wtf



Скачать Беспредел через торрент http://s013.radikal.ru/i322/1710/18/e1984d41f687.jpg Скачать фильм Беспредел через торрент бесплантно в хорошем качестве О фильме: В безжалостной борьбе за Влacть несколько кланов якудза оспаривают расположение крёстного отца. Главари поднимаются по ... 10 10 7
Info! Золотая раздача, скачанное не засчитывается.
Торрент: Зарегистрирован [2017-10-09 05:57] · скачан: 112 раз
Статус: √ проверено
Размер: 14.04 GB
Как cкачать? Как скачать Беспредел через торрент | qTorrent

% Раздел Тема Автор DL S | L
Фильмы [HD 720p, 1080p] (Хороший звук DUB, MVO) [ 4.94 GB ] Беспредел / Autoreiji [2010 BDRip 720p by msltel] MVO AVO msltel Скачать
1 | 0

28-11-2019 20:33  

Отключить всю рекламу на сайте

11-10-2017 15:41 Беспредел Скачать торрент  

чем версия 11 гб от 14 отличается? доп языки???pb.wtf



    Дорогой пользователь! Огромная просьба, поблагодарите релизера, оцените раздачу и оставьте свои комментарий, если Вы скачали Беспредел через торрент бесплатно! Внесите свою лепту в развитие PiratBit!
    Комментировать посты могут только пользователи прошедшие не сложную регистрацию
    Показать сообщения:    

    Беспредел через торрент
    Скачать бесплатно Беспредел
    Беспредел скачать торрент
    Беспредел смотреть онлайн
    Cкачать фильм Беспредел бесплатно
    Беспредел скачать торрент в хорошем качестве
    Беспредел смотреть онлайн бесплатно в хорошем качестве


    Вы не можете начинать темы
    Вы не можете отвечать на сообщения
    Вы не можете редактировать свои сообщения
    Вы не можете удалять свои сообщения
    Вы не можете голосовать в опросах
    Вы не можете прикреплять файлы к сообщениям
    Вы можете скачивать файлы