Ссылка на приватное зеркало нашего сайта всего за 1$. Внимание количество ограничено!!!

2 сезон

iTunes

1 сезон

1

iTunes

iTunes

iTunes

1 сезон

RePack

30

ИГРА 18+

pack

ВАЖНО

!!Акция!!

Alien_RageХит недели

RePack

MK11
pack

Забери бонус

RePack

jed

!!Акция!!

Alien_Rage

RePack

fifa19

RePack

Assassins Creed: Odyssey

RePack

NEED FOR SPEED™ PAYBACK

4 сезон

9 сезон

Бесстыжие 9 сезон

Все сериалы

все сериалы на PB.wtf

RePack

FAR CRY 5
  

Сыновья Большой Медведицы / Die Sohne der grossen Barin (Йозеф Мах) [1966, вестерн, BDRip 1080p by msltel] DUB pb.wtf

Сыновья Большой Медведицы через торрент pb.wtf

Размер: 8.33 GB | Добавлен: 3 года назад | Торрент скачан:19 раз
Скачать  

09-10-2017 07:00 Сыновья Большой Медведицы Скачать торрент  

Название: Сыновья Большой Медведицы
Оригинальное название: Die Sohne der grossen Barin
Год выпуска: 1966
Страна: Германия (ГДР)
Жанр: вестерн
Продолжительность: 01:27:44
Перевод: дублированный

Режиссер: Йозеф Мах
В ролях: Гойко Митич, Рольф Ремер, Хельмут Шрайбер, Иржи Врстала, Милан Яблонски, Ганс Хардт-Хардтлофф, Хорст Йонишкан

О фильме: Токей-Ито, вождь «сыновей Большой Медведицы» из племени дакота, приглашён лейтенантом Роучем в Форт-Смит. Токей-Ито опасается предательства белых и охотнее сражался бы против них вместе с верховным вождём Тачунка-Витко, но старейшины решили иначе. Когда он прибывает в Форт-Смит в сопровождении своего личного врага Фреда Кларка по кличке «Красный Лис», его подозрения сбываются. Белые хотят согнать индейцев с их земли, предоставленной им согласно договору, так как там найдено золото. Токей-Ито отказывается переселяться в резервацию с бесплодными землями, и его сажают в тюрьму. Победив непокорных индейцев и заставив их переселиться, белые выпускают Токей-Ито на свободу. Тем временем, его соплеменники уже осознали свою ошибку. Вместе с Токей-Ито они решают бежать в свободную Канаду. Начинается ожесточённое преследование. В то время как племя пересекает границу, Токей-Ито вступает в последний поединок к Красным Лисом. Сумеет ли он победить его?... По одноимённому роману Лизелотты Вельскопф-Хенрих.



Качество: BDRip 1080p
Формат: MKV
Видео: MPEG-4 AVC, 12.6 Mбит/с, 1920x816
Аудио 1: русский, AC3, 192 kbps, 2 ch [дублированный]
Аудио 2: немецкий, DTS, 768 kbps, 2 ch, 48 kHz [оригинал]
Субтитры 1: русские
Субтитры 2: английские
Имеются неименованные главы/чаптеры.
Общее
Уникальный идентификатор : 223919684065967294590551537411626216144 (0xA8755CCAB48F41E194ABCA6F0F89AAD0)
Полное имя : D:\Video\Сыновья Большой Медведицы.1966.BDRip.1080p by msltel.mkv
Формат : Matroska
Версия формата : Version 4 / Version 2
Размер файла : 8,33 Гбайт
Продолжительность : 1 ч. 27 м.
Общий поток : 13,6 Мбит/сек
Название фильма : Rip by msltel
Дата кодирования : UTC 2017-10-09 02:15:15
Программа кодирования : mkvmerge v8.2.0 ('World of Adventure') 64bit
Библиотека кодирования : libebml v1.3.1 + libmatroska v1.4.2

Видео
Идентификатор : 1
Формат : AVC
Формат/Информация : Advanced Video Codec
Профиль формата : High@L4.1
Параметр CABAC формата : Да
Параметр RefFrames формата : 4 кадра
Идентификатор кодека : V_MPEG4/ISO/AVC
Продолжительность : 1 ч. 27 м.
Битрейт : 12,6 Мбит/сек
Ширина : 1920 пикселей
Высота : 816 пикселей
Соотношение сторон : 2,35:1
Режим частоты кадров : Постоянный
Частота кадров : 25,000 кадров/сек
Цветовое пространство : YUV
Субдискретизация насыщенности : 4:2:0
Битовая глубина : 8 бит
Тип развёртки : Прогрессивная
Бит/(Пиксели*Кадры) : 0.322
Размер потока : 7,74 Гбайт (93%)
Библиотека кодирования : x264 core 146 r2538 121396c
Настройки программы : cabac=1 / ref=4 / deblock=1:-3:-2 / analyse=0x3:0x113 / me=umh / subme=11 / psy=1 / psy_rd=1.00:0.15 / mixed_ref=1 / me_range=32 / chroma_me=1 / trellis=2 / 8x8dct=1 / cqm=0 / deadzone=21,11 / fast_pskip=0 / chroma_qp_offset=-3 / threads=6 / lookahead_threads=1 / sliced_threads=0 / nr=0 / decimate=1 / interlaced=0 / bluray_compat=0 / constrained_intra=0 / bframes=8 / b_pyramid=2 / b_adapt=2 / b_bias=0 / direct=1 / weightb=1 / open_gop=0 / weightp=2 / keyint=250 / keyint_min=25 / scenecut=40 / intra_refresh=0 / rc_lookahead=40 / rc=crf / mbtree=0 / crf=18.0 / qcomp=0.60 / qpmin=0 / qpmax=69 / qpstep=4 / vbv_maxrate=62500 / vbv_bufsize=78125 / crf_max=0.0 / nal_hrd=none / filler=0 / ip_ratio=1.40 / pb_ratio=1.30 / aq=1:1.00
Язык : German
Default : Да
Forced : Нет

Аудио #1
Идентификатор : 2
Формат : AC-3
Формат/Информация : Audio Coding 3
Параметр Endianness формата : Big
Идентификатор кодека : A_AC3
Продолжительность : 1 ч. 27 м.
Вид битрейта : Постоянный
Битрейт : 192 Кбит/сек
Каналы : 2 канала
Расположение каналов : Front: L R
Частота : 48,0 КГц
Частота кадров : 31,250 кадров/сек (1536 SPF)
Битовая глубина : 16 бит
Метод сжатия : С потерями
Размер потока : 120 Мбайт (1%)
Заголовок : DUB
Язык : Russian
ServiceKind/String : Complete Main
Default : Да
Forced : Нет

Аудио #2
Идентификатор : 3
Формат : DTS
Формат/Информация : Digital Theater Systems
Режим : 16
Параметр Endianness формата : Big
Идентификатор кодека : A_DTS
Продолжительность : 1 ч. 27 м.
Вид битрейта : Постоянный
Битрейт : 768 Кбит/сек
Каналы : 2 канала
Расположение каналов : Front: L R
Частота : 48,0 КГц
Частота кадров : 93,750 кадра/сек (512 SPF)
Битовая глубина : 16 бит
Метод сжатия : С потерями
Размер потока : 482 Мбайт (6%)
Заголовок : original
Язык : German
Default : Нет
Forced : Нет

Текст #1
Идентификатор : 4
Формат : UTF-8
Идентификатор кодека : S_TEXT/UTF8
Идентификатор кодека/Информация : UTF-8 Plain Text
Продолжительность : 1 ч. 26 м.
Битрейт : 42 бит/сек
ElementCount : 425
Размер потока : 27,0 Кбайт (0%)
Заголовок : русские
Язык : Russian
Default : Нет
Forced : Нет

Текст #2
Идентификатор : 5
Формат : UTF-8
Идентификатор кодека : S_TEXT/UTF8
Идентификатор кодека/Информация : UTF-8 Plain Text
Продолжительность : 1 ч. 6 м.
Битрейт : 23 бит/сек
ElementCount : 393
Размер потока : 11,3 Кбайт (0%)
Заголовок : английские
Язык : English
Default : Нет
Forced : Нет

Меню
00:00:00.000 : :Chapter 01
00:10:01.160 : :Chapter 02
00:22:24.359 : :Chapter 03
00:34:27.040 : :Chapter 04
00:40:19.360 : :Chapter 05
00:47:44.600 : :Chapter 06
00:53:12.800 : :Chapter 07
01:01:03.800 : :Chapter 08
01:06:34.200 : :Chapter 09
01:11:10.880 : :Chapter 10
01:15:58.479 : :Chapter 11
01:22:30.680 : :Chapter 12
pb.wtf



Скачать Сыновья Большой Медведицы через торрент http://s018.radikal.ru/i507/1710/06/fbc621f72c91.jpg Скачать фильм Сыновья Большой Медведицы через торрент бесплантно в хорошем качестве О фильме: Токей-Ито, вождь «сыновей Большой Медведицы» из племени дакота, приглашён лейтенантом Роучем в Форт-Смит. Токей-Ито опасается ... 10 10 2
Info! Золотая раздача, скачанное не засчитывается.
Торрент: Зарегистрирован [2017-10-09 07:00] · скачан: 19 раз
Статус: √ проверено
Размер: 8.33 GB
Как cкачать? Как скачать Сыновья Большой Медведицы через торрент | qTorrent

% Раздел Тема Автор DL S | L
Фильмы [HD 720p, 1080p] (Хороший звук DUB, MVO) [ 3.08 GB ] Сыновья Большой Медведицы / Die Sohne der grossen Barin [1966 BDRip 720p by msltel] DUB msltel Скачать
1 | 0

28-11-2019 20:33  

Отключить всю рекламу на сайте

    Дорогой пользователь! Огромная просьба, поблагодарите релизера, оцените раздачу и оставьте свои комментарий, если Вы скачали Сыновья Большой Медведицы через торрент бесплатно! Внесите свою лепту в развитие PiratBit!
    Комментировать посты могут только пользователи прошедшие не сложную регистрацию
    Показать сообщения:    

    Сыновья Большой Медведицы через торрент
    Скачать бесплатно Сыновья Большой Медведицы
    Сыновья Большой Медведицы скачать торрент
    Сыновья Большой Медведицы смотреть онлайн
    Cкачать фильм Сыновья Большой Медведицы бесплатно
    Сыновья Большой Медведицы скачать торрент в хорошем качестве
    Сыновья Большой Медведицы смотреть онлайн бесплатно в хорошем качестве


    Вы не можете начинать темы
    Вы не можете отвечать на сообщения
    Вы не можете редактировать свои сообщения
    Вы не можете удалять свои сообщения
    Вы не можете голосовать в опросах
    Вы не можете прикреплять файлы к сообщениям
    Вы можете скачивать файлы