Ссылка на приватное зеркало нашего сайта всего за 1$. Внимание количество ограничено!!!

2 сезон

iTunes

1 сезон

1

2 сезон

2 сезон

iTunes

1 сезон

RePack

30

Новинка

ВАЖНО

ИГРА 18+

pack

RePack

MK11
pack

Забери бонус

RePack

jed

!!Акция!!

Alien_Rage

RePack

fifa19

RePack

Assassins Creed: Odyssey

RePack

NEED FOR SPEED™ PAYBACK

4 сезон

9 сезон

Бесстыжие 9 сезон

Все сериалы

все сериалы на PB.wtf

RePack

FAR CRY 5
  

Орвилл / The Orville / Сезон 1 / Серии 1-12 из 12 (Брэннон Брага, Джон Кассар, Джеймс Л. Конуэй) [2017, Фантастика, драма, комедия, WEB-DL 720p] MVO [AlexFilm] pb.wtf

Орвилл через торрент pb.wtf

Размер: 17.84 GB | Добавлен: 2 года 11 мес. назад | Торрент скачан:107 раз
Скачать  

09-10-2017 16:19 Орвилл Скачать торрент  

✦ ✦ ✦ Орвилл / The Orville ✦ ✦ ✦✦ Информация о фильме: ✦

✦ Год выпуска: 2017
✦ Страна: США
✦ Жанр: ✦ Фантастика, драма, комедия ✦
✦ Продолжительность: 12 ~ 00:43:00
✦ Перевод: Профессиональный многоголосый -
✦ Субтитры: отсутствуют

✦ Режиссер: Брэннон Брага, Джон Кассар, Джеймс Л. Конуэй

rating

В ролях:

Сет МакФарлейн, Скотт Граймз, Пенни Джонсон, Питер Макон, Эдрианн Палики, Холстон Сейдж, Ларри Джо Кэмпбелл, Норм МакДональд и др.

Описание:

Действие сериала разверачивается через 300 лет в будущем, а сюжет закручивается вокруг экипажа Орвилла - не самого передового корабля межзвездного флота Земли. Разношерстный экипаж Орвилла смело шагнет навстречу космическим вызовам, туда, где еще не ступала нога ни одной комедии.

✦ Информация о файле: ✦

✦ Качество: WEB-DL 720p
✦ Формат: MKV
✦ Видео кодек: H.264
✦ Аудио кодек: AC3

✦ Видео: 1280x718, 23.976 fps, MPEG-4 AVC ~4000 kbps avg, 0.180 bit/pixel
✦ Аудио#1: RU: 48 kHz, AC3 Dolby Digital, 3/2 (L,C,R,l,r) + LFE ch, ~384.00 kbps
✦ Аудио#2: EN: 48 kHz, AC3 Dolby Digital, 3/2 (L,C,R,l,r) + LFE ch, ~384.00 kbps


Маргарита Корш
Петр Гланц
Кирилл Патрино
Константин Федосеев
Артем Бахтин
Михаил Суслов
Перевод: Александр Лазарев
Монтаж и сведение звука: Михаил Суслов, Михаил Шорыгин

скриншот   скриншот   скриншот   скриншот   скриншот  

Общее
Уникальный идентификатор : 208955489733338601995590428458387592729 (0x9D335D0C82D4E9058A34C13E58C55619)
Полное имя : D:\The Orville - Season 1 (AlexFilm) WEB-DL 720p\The.Orville.s01e01.WEB-DL.720p.Rus.Eng.AlexFilm.mkv
Формат : Matroska
Версия формата : Version 4 / Version 2
Размер файла : 1,51 Гбайт
Продолжительность : 45 м. 4 с.
Общий поток : 4781 Кбит/сек
Название фильма : The Orville 1x01 @ AlexFilm
Дата кодирования : UTC 2017-09-13 10:43:38
Программа кодирования : mkvmerge v7.1.0 ('Good Love') 64bit built on Jul 27 2014 13:06:55
Библиотека кодирования : libebml v1.3.0 + libmatroska v1.4.1

Видео
Идентификатор : 1
Формат : AVC
Формат/Информация : Advanced Video Codec
Профиль формата : High@L3.1
Параметр CABAC формата : Нет
Параметр ReFrames формата : 2 кадра
Идентификатор кодека : V_MPEG4/ISO/AVC
Продолжительность : 45 м. 4 с.
Битрейт : 3918 Кбит/сек
Ширина : 1280 пикселей
Высота : 718 пикселей
Соотношение сторон : 16:9
Режим частоты кадров : Постоянный
Частота кадров : 23,976 (24000/1001) кадра/сек
Цветовое пространство : YUV
Субдискретизация насыщенности : 4:2:0
Битовая глубина : 8 бит
Тип развёртки : Прогрессивная
Бит/(Пиксели*Кадры) : 0.178
Размер потока : 1,23 Гбайт (82%)
Заголовок : The.Orville.S01E01.720p.WEB-DL.DD5.1.H264-RARBG
Язык : English
Default : Да
Forced : Нет
Цветовой диапазон : Limited
Основные цвета : BT.709
Характеристики трансфера : BT.709
Коэффициенты матрицы : BT.709

Аудио #1
Идентификатор : 2
Формат : AC-3
Формат/Информация : Audio Coding 3
Расширение режима : CM (complete main)
Параметр Endianness формата : Big
Идентификатор кодека : A_AC3
Продолжительность : 45 м. 4 с.
Вид битрейта : Постоянный
Битрейт : 384 Кбит/сек
Каналы : 6 каналов
Расположение каналов : Front: L C R, Side: L R, LFE
Частота : 48,0 КГц
Частота кадров : 31,250 кадров/сек (1536 spf)
Метод сжатия : С потерями
Размер потока : 124 Мбайт (8%)
Заголовок : DD5.1 AlexFilm
Язык : Russian
Default : Да
Forced : Нет

Аудио #2
Идентификатор : 3
Формат : AC-3
Формат/Информация : Audio Coding 3
Расширение режима : CM (complete main)
Параметр Endianness формата : Big
Идентификатор кодека : A_AC3
Продолжительность : 45 м. 4 с.
Вид битрейта : Постоянный
Битрейт : 384 Кбит/сек
Каналы : 6 каналов
Расположение каналов : Front: L C R, Side: L R, LFE
Частота : 48,0 КГц
Частота кадров : 31,250 кадров/сек (1536 spf)
Метод сжатия : С потерями
Задержка видео : 12 мс.
Размер потока : 124 Мбайт (8%)
Заголовок : DD5.1 Original
Язык : English
Default : Нет
Forced : Нет

Когда раздача ведётся путём добавления новых серий, при каждом добавлении создётся новый торрент. Чтобы начать докачку новой серии, пользователям необходимо сделать следующее:
(1) остановить скачивание,
(2) удалить старый торрент у себя из клиента (старые серии удалять не надо),
(3) скачать новый торрент и запустить его у себя в клиенте вместо старого, при этом указать клиенту путь в старую папку, куда и должно происходить скачивание новых серий.
Ваш клиент при этом должен произвести хеширование (проверку) старой папки (если не производит сам - помогите ему сделать это), и будет докачивать только те серии, которых у вас ещё нет. Старые серии при этом не удаляются, а продолжают раздаваться!
Eсли вы уже удалили старые серии, то предотвратить повторную закачку старых серий можно, отжав галочку в соответсвующих местах при запуске нового торрента. По возможности, желательно не удалять старые серии как можно дольше, чтобы релизёр не столько продолжал раздавать старые серии, а смог сконцентрироваться на новых.
pb.wtf



Скачать Орвилл через торрент http://i89.fastpic.ru/big/2017/1001/96/d05b62f17265b3acc6a003c40c6b6996.jpg Скачать фильм Орвилл через торрент бесплантно в хорошем качестве Описание ✦: Действие сериала разверачивается через 300 лет в будущем, а сюжет закручивается вокруг экипажа Орвилла - не самого передового ... 10 10 6
Info! Золотая раздача, скачанное не засчитывается.
Торрент: Зарегистрирован [2017-12-14 07:21] · скачан: 107 раз
Статус: √ проверено
Размер: 17.84 GB
Как cкачать? Как скачать Орвилл через торрент | qTorrent

% Раздел Тема Автор DL S | L
Зарубежные сериалы [ 8.51 GB ] Орвилл / The Orville / Сезон: 2 / Серии: 1-12 из 12 [2019 WEB-DLRip] [MVO] killermax2013 Скачать
1 | 0
Зарубежные сериалы [ 33.69 GB ] Орвилл / The Orville / Сезон: 2 / Серии: 1-10 из 12 [2019 WEB-DL 1080p] [MVO] killermax2013 Скачать
1 | 0
Зарубежные сериалы [ 18.49 GB ] Орвилл / The Orville / Сезон: 2 / Серии: 1-12 из 14 [2019 WEB-DL 720p] [MVO] killermax2013 Скачать
1 | 0
Зарубежные сериалы [ 42.66 GB ] Орвилл / The Orville / Сезон: 1 / Серии: 1-12 из 12 [2017 WEB-DL 1080p] MVO [TVShows] bober100 Скачать
1 | 0
Зарубежные сериалы [ 6.16 GB ] Орвилл / The Orville / Сезон: 1 / Серии: 1-12 из 12 [2017 WEB-DLRip] [MVO] killermax2013 Скачать
1 | 0
Зарубежные сериалы [ 20.38 GB ] Орвилл / The Orville / Сезон: 1 / Серии 1-12 из 12 [2017 WEBRip 720p] MVO [BaibaKo] GEKADOL Скачать
1 | 0

28-11-2019 20:33  

Отключить всю рекламу на сайте

    Дорогой пользователь! Огромная просьба, поблагодарите релизера, оцените раздачу и оставьте свои комментарий, если Вы скачали Орвилл через торрент бесплатно! Внесите свою лепту в развитие PiratBit!
    Комментировать посты могут только пользователи прошедшие не сложную регистрацию
    Показать сообщения:    

    Орвилл через торрент
    Скачать бесплатно Орвилл
    Орвилл скачать торрент
    Орвилл смотреть онлайн
    Cкачать фильм Орвилл бесплатно
    Орвилл скачать торрент в хорошем качестве
    Орвилл смотреть онлайн бесплатно в хорошем качестве


    Вы не можете начинать темы
    Вы не можете отвечать на сообщения
    Вы не можете редактировать свои сообщения
    Вы не можете удалять свои сообщения
    Вы не можете голосовать в опросах
    Вы не можете прикреплять файлы к сообщениям
    Вы можете скачивать файлы