Всегда рабочее зеркало без VPN и Proxy просто перед .vidak.icu напиши любое слово или цифру, Пример http://6im8.vidak.icu

MVO

Лицензия

1 сезон

1

1 сезон

iTunes

1 сезон

13

1 сезон

Deluxe

pack

Рекомендуем

Repack

30

ВАЖНО

RePack

MK11

RePack

jed

RePack

fifa19

RePack

RDR2

RePack

NEED FOR SPEED™ PAYBACK

Кинопоиск HD

6 сезон

 Острые козырьки 6 сезон

Все сериалы

все сериалы на PB.wtf

RePack

FAR CRY 5
  
Magnet ссылка

Субура / Suburra / Сезон: 1 / Серии 1-10 из 10 (Джузеппе Капотонди, Андреа Молайоли, Микеле Плачидо) [2017 , Италия, боевик, криминал, WEBRip 720p] MVO [BaibaKo] pb.wtf

Субура через торрент pb.wtf

Размер: 10.03 GB | Добавлен: 4 года 8 мес. назад | Торрент скачан:48 раз
Смотреть онлайн Субура | Скачать    Ребята, помогите собрать деньги на оплату серверов!!!

10-10-2017 01:12 Субура Скачать торрент  


Субура / Suburra



  • Год выпуска: 2017
  • Страна: Италия
  • Жанр: боевик, криминал
  • Продолжительность: 00:50:00 (Серия)
  • Перевод: Профессиональный многоголосый [BaibaKo]
  • Режиссер: Джузеппе Капотонди, Андреа Молайоли, Микеле Плачидо
  • В ролях:
    Филиппо Нигро, Пьетро Рагуса, Герасимос Скиадаресис, Франческо Аквароли, Алессандро Борги, Адамо Дионизи, Джакомо Феррара, Клаудия Джерини и др.


  • Первый итальянский сериал от Нетфликс о борьбе за землю в приморском городе недалеко от Рима между организованной преступностью, коррумпированными политиками и Ватиканом.
  • Рейтинг:


  • Качество: WEBRip 720p
  • Формат: :MKV
  • Видео кодек: AVC
  • Аудио кодек: AC3
  • Видео: 2164 Кбит/сек, 1280*720 (16:9), в 23,976 (24000/1001) кадра/сек, AVC
  • Аудио №1: русский 384 Кбит/сек, 48,0 КГц, 16 бит, 6 каналов, AC-3 |[BaibaKo]|
  • Аудио №2: английский 384 Кбит/сек, 48,0 КГц, 16 бит, 6 каналов, AC-3
  • Релиз от: GEKADOL


    Общее
    Уникальный идентификатор : 202462337299295573183154808286628282102 (0x9850D3EACD2503D9AC9178A2B85FFEF6)
    Полное имя : F:\Субура (Suburra)\Suburra.s01e10.HD720p.WEBRip.Rus.Eng.BaibaKo.tv.mkv
    Формат : Matroska
    Версия формата : Version 4 / Version 2
    Размер файла : 1,02 Гбайт
    Продолжительность : 48 м. 38 с.
    Общий поток : 2992 Кбит/сек
    Дата кодирования : UTC 2017-10-10 01:08:09 / UTC 2017-10-09T10:13:44Z
    Программа кодирования : mkvmerge v14.0.0 ('Flow') 64bit
    Библиотека кодирования : libebml v1.3.4 + libmatroska v1.4.5 / Lavf55.12.0

    Видео
    Идентификатор : 1
    Формат : AVC
    Формат/Информация : Advanced Video Codec
    Профиль формата : [email protected]
    Параметр CABAC формата : Да
    Параметр RefFrames формата : 4 кадра
    Идентификатор кодека : V_MPEG4/ISO/AVC
    Продолжительность : 48 м. 38 с.
    Битрейт : 2164 Кбит/сек
    Ширина : 1280 пикселей
    Высота : 720 пикселей
    Соотношение сторон : 16:9
    Режим частоты кадров : Постоянный
    Частота кадров : 23,976 (24000/1001) кадра/сек
    Цветовое пространство : YUV
    Субдискретизация насыщенности : 4:2:0
    Битовая глубина : 8 бит
    Тип развёртки : Прогрессивная
    Бит/(Пиксели*Кадры) : 0.098
    Размер потока : 753 Мбайт (72%)
    Default : Да
    Forced : Нет
    Цветовой диапазон : Limited
    Основные цвета : BT.709
    Характеристики трансфера : BT.709
    Коэффициенты матрицы : BT.709
    Statistics Tags Issue : mkvmerge v14.0.0 ('Flow') 64bit 2017-10-10 01:08:09 / mkvmerge v14.0.0 ('Flow') 64bit 2017-10-10 01:08:09 / UTC 2017-10-09T10:13:44Z
    FromStats_BitRate : 2221931
    FromStats_Duration : 00:48:38.249000000
    FromStats_FrameCount : 69968
    FromStats_StreamSize : 810518817

    Аудио #1
    Идентификатор : 2
    Формат : AC-3
    Формат/Информация : Audio Coding 3
    Параметр Endianness формата : Big
    Идентификатор кодека : A_AC3
    Продолжительность : 48 м. 38 с.
    Вид битрейта : Постоянный
    Битрейт : 384 Кбит/сек
    Каналы : 6 каналов
    Расположение каналов : Front: L C R, Side: L R, LFE
    Частота : 48,0 КГц
    Частота кадров : 31,250 кадров/сек (1536 SPF)
    Битовая глубина : 16 бит
    Метод сжатия : С потерями
    Задержка видео : 7 мс.
    Размер потока : 134 Мбайт (13%)
    Заголовок : Surround
    Язык : Russian
    ServiceKind/String : Complete Main
    Default : Да
    Forced : Нет
    Statistics Tags Issue : mkvmerge v14.0.0 ('Flow') 64bit 2017-10-10 01:08:09 / mkvmerge v14.0.0 ('Flow') 64bit 2017-10-10 01:08:09 / UTC 2017-10-09T10:13:44Z
    FromStats_BitRate : 384000
    FromStats_Duration : 00:48:38.272000000
    FromStats_FrameCount : 91196
    FromStats_StreamSize : 140077056

    Аудио #2
    Идентификатор : 3
    Формат : AC-3
    Формат/Информация : Audio Coding 3
    Параметр Endianness формата : Big
    Идентификатор кодека : A_AC3
    Продолжительность : 48 м. 38 с.
    Вид битрейта : Постоянный
    Битрейт : 384 Кбит/сек
    Каналы : 6 каналов
    Расположение каналов : Front: L C R, Side: L R, LFE
    Частота : 48,0 КГц
    Частота кадров : 31,250 кадров/сек (1536 SPF)
    Битовая глубина : 16 бит
    Метод сжатия : С потерями
    Задержка видео : 7 мс.
    Размер потока : 134 Мбайт (13%)
    Заголовок : Surround
    Язык : English
    ServiceKind/String : Complete Main
    Default : Нет
    Forced : Нет
    Statistics Tags Issue : mkvmerge v14.0.0 ('Flow') 64bit 2017-10-10 01:08:09 / mkvmerge v14.0.0 ('Flow') 64bit 2017-10-10 01:08:09 / UTC 2017-10-09T10:13:44Z
    FromStats_BitRate : 384000
    FromStats_Duration : 00:48:38.272000000
    FromStats_FrameCount : 91196
    FromStats_StreamSize : 140077056



    Скриншоты:
    скриншот   скриншот   скриншот   скриншот   скриншот   скриншот   скриншот  
    скриншот  


    pb.wtf



  • Скачать Субура через торрент https://pic1.kartinco.top/images/11/66ws8.jpg Скачать, смотреть онлайн Субура бесплантно в хорошем качестве qw.png Первый итальянский сериал от Нетфликс о борьбе за землю в приморском городе недалеко от Рима между организованной преступностью, ... 10 10 4
    Info! Золотая раздача, скачанное не засчитывается.
    Торрент: Зарегистрирован [2017-10-10 01:18] · скачан: 48 раз
    Статус: √ проверено
    Размер: 10.03 GB
    Как cкачать? Как скачать Субура через торрент | UTorrent

    % Раздел Тема Автор DL S | L
    Зарубежные сериалы [ 9.04 GB ] Субура / Suburra: Blood on Rome / Сезон: 3 / Серии: 1-6 из 6 [2020 WEB-DL 1080p] MVO [Jaskier] bober100 Скачать
    1 | 0
    Зарубежные сериалы [ 10.62 GB ] Субура / Suburra / Сезон: 1 / Серии: 1-10 из 10 [2017 WEBRip 720p] MVO [Jaskier] bober100 Скачать
    1 | 0
    Зарубежные сериалы [ 6.25 GB ] Субура / Suburra / Сезон: 1 / Серии: 1-10 из 10 [2017 WEBRip] MVO [Jaskier] bober100 Скачать
    1 | 0
    Зарубежные сериалы [ 12.61 GB ] Субура / Suburra / Сезон: 2 / Серии: 1-8 из 8 [2019 WEBRip 1080p] [MVO] killermax2013 Скачать
    1 | 0
    Зарубежные сериалы [ 133.98 GB ] Субура / Suburra / Сезон: 1 / Серии 1-10 из 10 [2017 Италия UHD WEBRip 2160p] 2xMVO sheker187 Скачать
    1 | 0
    Зарубежные сериалы [ 17.57 GB ] Субура / Suburra / Сезон: 1 / Серии 1-10 из 10 [2017 WEB-DLRip 1080p] [MVO] killermax2013 Скачать
    1 | 0
    Зарубежные сериалы [ 6.25 GB ] Субура / Suburra / Сезон: 1 / Серии 1-10 из 10 [2017 WEBRip] [MVO] killermax2013 Скачать
    1 | 0

    28-11-2019 20:33  

    Отключить всю рекламу на сайте

    10-10-2017 13:13 Субура Скачать торрент  

    а другие озвучки ожидаются?pb.wtf



      Дорогой пользователь! Огромная просьба, поблагодарите релизера, оцените раздачу и оставьте свои комментарий, если Вы скачали Субура через торрент бесплатно!
      Комментировать посты могут только пользователи прошедшие не сложную регистрацию
      Показать сообщения:    

      Субура через торрент
      Скачать бесплатно Субура
      Субура скачать торрент
      Субура смотреть онлайн
      Cкачать фильм Субура бесплатно
      Субура скачать торрент в хорошем качестве
      Субура смотреть онлайн бесплатно в хорошем качестве


      Вы не можете начинать темы
      Вы не можете отвечать на сообщения
      Вы не можете редактировать свои сообщения
      Вы не можете удалять свои сообщения
      Вы не можете голосовать в опросах
      Вы не можете прикреплять файлы к сообщениям
      Вы можете скачивать файлы