Ссылка на приватное зеркало всего за 1$. Внимание количество ограничено!!!

iTunes

1+1

iTunes

мы

WEB-DL

1

iTunes

Чернобыль

iTunes

Ральф против интернета

Лицензия

ПШазам

Лицензия

Оно 2

Лицензия

30
pack

Вам бонус

ВАЖНО

!!Акция!!

Alien_RageХит недели

RePack

Resident Evil 21

ИГРА 18+

pack

RePack

jed

!!Акция!!

Alien_Rage

RePack

fifa19

RePack

Assassins Creed: Odyssey

RePack

NEED FOR SPEED™ PAYBACK

3 сезон

9 сезон

Бесстыжие 9 сезон

Все сериалы

все сериалы на PB.wtf

RePack

FAR CRY 5
Ребята, катастрофически не хватает 1900р. для оплаты серверов за Октябрь (всвязи с блокировками трафик упал в 3 раза), 1-2р., выручайте.
  

Ветер (Александр Алов, Владимир Наумов) [1958, СССР, драма, военный, SATRip от AVP Studio] pb.wtf

Ветер через торрент pb.wtf

Размер: 1.09 GB | Добавлен: 2 года 2 мес. назад | Торрент скачан:17 раз
Скачать  

10-10-2017 09:41 Ветер Скачать торрент  

Ветер
Страна: СССР
Производство: Мосфильм

Жанр: драма, военный
Год выпуска: 1958
Продолжительность: 01:33:25

Перевод: Не требуется
Cубтитры: нет
Оригинальная аудиодорожка: русский

Режиссер: Александр Алов, Владимир Наумов

В ролях:
Эдуард Бредун, Тамара Логинова, Эльза Леждей, Александр Демьяненко, Алексей Крыченков, Иван Александров, Анатолий Ромашин, Н. Солошенко, Виктория Радунская, Юрий Яковлев...
Об актёрах подробней

Описание:
Фильм "Ветер" завершил "комсомольскую" трилогию А. Алова и В. Наумова (ее начали "Тревожная молодость" и "Павел Корчагин").
Гражданская война, маленький южный городок занят белыми. Группа молодых людей отправляется в далекий путь, чтобы принять участие в первом Всероссийском съезде Союза рабочей и крестьянской молодежи. Трое — молодой большевик Федор, гимназист Митя и молодая работница Настя — идут в Москву. В пути к ним присоединяются еще двое: девушка Мари и беспризорник Окурок. Путь их оказывается долгим и трудным…

Источник: DVB
Качество видео: SATRip
Формат видео: AVI

Видео: 688x512 (4:3), 25 fps, XviD ~ 1468 kbps avg, 0.167 bit/pixel
Аудио: 48 kHz, Dolby Digital AC3 2.0, 192 kbps

Раздача от:
Общее
Полное имя : Veter.1958.SATRip_[New-team]_by_AVP_Studio.avi
Формат : AVI
Формат/Информация : Audio Video Interleave
Размер файла : 1,09 Гбайт
Продолжительность : 1 ч. 33 м.
Общий поток : 1670 Кбит/сек
Программа кодирования : VirtualDubMod 1.5.10.3 | www.virtualdub-fr.org || (build 2550/release)
Библиотека кодирования : VirtualDubMod build 2550/release

Видео
Идентификатор : 0
Формат : MPEG-4 Visual
Профиль формата : Advanced Simple@L5
Параметр BVOP формата : 1
Параметр QPel формата : Нет
Параметр GMC формата : Без точки перехода
Параметр матрицы формата : Выборочная
Идентификатор кодека : XVID
Идентификатор кодека/Подсказка : XviD
Продолжительность : 1 ч. 33 м.
Битрейт : 1468 Кбит/сек
Ширина : 688 пикселей
Высота : 512 пикселей
Соотношение сторон : 4:3
Частота кадров : 25,000 кадров/сек
Цветовое пространство : YUV
Субдискретизация насыщенности : 4:2:0
Битовая глубина : 8 бит
Тип развёртки : Прогрессивная
Метод сжатия : С потерями
Бит/(Пиксели*Кадры) : 0.167
Размер потока : 981 Мбайт (88%)
Библиотека кодирования : XviD 73

Аудио
Идентификатор : 1
Формат : AC-3
Формат/Информация : Audio Coding 3
Параметр Endianness формата : Big
Идентификатор кодека : 2000
Продолжительность : 1 ч. 33 м.
Вид битрейта : Постоянный
Битрейт : 192 Кбит/сек
Каналы : 2 канала
Расположение каналов : Front: L R
Частота : 48,0 КГц
Частота кадров : 31,250 кадров/сек (1536 SPF)
Битовая глубина : 16 бит
Метод сжатия : С потерями
Размер потока : 128 Мбайт (11%)
Выравнивание : Разделение по промежуткам
Продолжительность промежутка : 40 мс. (1,00 видеокадр)
Время предзагрузки промежутка : 500 мс
pb.wtf



Скачать Ветер через торрент http://s019.radikal.ru/i616/1710/56/4971314508ac.png Скачать фильм Ветер через торрент бесплантно в хорошем качестве Описание:Фильм "Ветер" завершил "комсомольскую" трилогию А. Алова и В. Наумова (ее начали "Тревожная молодость" и "Павел ... 10 10 1
Info! Золотая раздача, скачанное не засчитывается.
Торрент: Зарегистрирован [2017-10-10 09:41] · скачан: 17 раз
Статус: √ проверено
Размер: 1.09 GB
Как cкачать? Как скачать Ветер через торрент | qTorrent

% Раздел Тема Автор DL S | L
Фильмы (Blu-ray, BD-Remux, HDDVD) [ 24.63 GB ] Быстрая как ветер / Veloce come il vento / Italian Race [2016 BDRemux 1080p] [MVO] killermax2013 Скачать
1 | 0
S.T.A.L.K.E.R. [ 4.06 GB ] S.T.A.L.K.E.R.: Call of Pripyat - Ветер времени [Repack RUS] от SEREGA-LUS SeregA_Lus Скачать
9 | 1
Фильмы до 2000 г. [ 1.46 GB ] Ледяной ветер / The Ice Storm [1997 HDRip] [MVO] killermax2013 Скачать
1 | 0
Фильмы (WEB-DL 720p, 1080p) [ 7.97 GB ] Серебряный ветер / The Silver Brumby [1993 WEB-DL 1080p] MVO - KORSAR kisa1980 Скачать
1 | 0
Фильмы 2018 [DVDrip, WEB-DLRip, HDrip] (DUB, MVO) [ 1.63 GB ] Обитель страха / Ветер / The Wind [2018 BDRip-AVC] bober100 Скачать
1 | 0
Фильмы 2018 [DVDrip, WEB-DLRip, HDrip] (DUB, MVO) [ 1.42 GB ] Обитель страха / Ветер / The Wind [2018 BDRip] - Twi7ter Скачать
11 | 0
Рок, Панк, Альтернатива (mp3) [ 1.23 GB ] VA - Ветер: Сборник русского рока 2019 / MP3 / 320 kbps / Рок bober100 Скачать
3 | 0

28-11-2019 20:33  

Отключить всю рекламу на сайте

    Дорогой пользователь! Огромная просьба, поблагодарите релизера, оцените раздачу и оставьте свои комментарий, если Вы скачали Ветер через торрент бесплатно! Внесите свою лепту в развитие PiratBit!
    Комментировать посты могут только пользователи прошедшие не сложную регистрацию
    Показать сообщения:    

    Ветер через торрент
    Скачать бесплатно Ветер
    Ветер скачать торрент
    Ветер смотреть онлайн
    Cкачать фильм Ветер бесплатно
    Ветер скачать торрент в хорошем качестве
    Ветер смотреть онлайн бесплатно в хорошем качестве


    Вы не можете начинать темы
    Вы не можете отвечать на сообщения
    Вы не можете редактировать свои сообщения
    Вы не можете удалять свои сообщения
    Вы не можете голосовать в опросах
    Вы не можете прикреплять файлы к сообщениям
    Вы можете скачивать файлы