Ссылка на приватное зеркало всего за 1$. Внимание количество ограничено!!!

iTunes

iTunes

iTunes

1

iTunes

iTunes

iTunes

iTunes

iTunes

30
pack

Новость дня

ВАЖНО

!!Акция!!

Alien_RageХит недели

RePack

Resident Evil 21

ИГРА 18+

pack

RePack

jed

!!Акция!!

Alien_Rage

RePack

fifa19

RePack

Assassins Creed: Odyssey

RePack

NEED FOR SPEED™ PAYBACK

4 сезон

9 сезон

Бесстыжие 9 сезон

Все сериалы

все сериалы на PB.wtf

RePack

FAR CRY 5
  

Ветер (Александр Алов, Владимир Наумов) [1958, СССР, драма, военный, SATRip от AVP Studio] pb.wtf

Ветер через торрент pb.wtf

Размер: 745 MB | Добавлен: 2 года 7 мес. назад | Торрент скачан:21 раз
Скачать  

10-10-2017 09:42 Ветер Скачать торрент  

Ветер
Страна: СССР
Производство: Мосфильм

Жанр: драма, военный
Год выпуска: 1958
Продолжительность: 01:33:25

Перевод: Не требуется
Cубтитры: нет
Оригинальная аудиодорожка: русский

Режиссер: Александр Алов, Владимир Наумов

В ролях:
Эдуард Бредун, Тамара Логинова, Эльза Леждей, Александр Демьяненко, Алексей Крыченков, Иван Александров, Анатолий Ромашин, Н. Солошенко, Виктория Радунская, Юрий Яковлев...
Об актёрах подробней

Описание:
Фильм "Ветер" завершил "комсомольскую" трилогию А. Алова и В. Наумова (ее начали "Тревожная молодость" и "Павел Корчагин").
Гражданская война, маленький южный городок занят белыми. Группа молодых людей отправляется в далекий путь, чтобы принять участие в первом Всероссийском съезде Союза рабочей и крестьянской молодежи. Трое — молодой большевик Федор, гимназист Митя и молодая работница Настя — идут в Москву. В пути к ним присоединяются еще двое: девушка Мари и беспризорник Окурок. Путь их оказывается долгим и трудным…

Источник: DVB
Качество видео: SATRip
Формат видео: AVI

Видео: 576x432 (4:3), 25 fps, XviD ~ 978 kbps avg, 0.157 bit/pixel
Аудио: 48 kHz, MP3 2.0, 128 kbps

Раздача от:
Общее
Полное имя : Veter.1958.SATRip-745_[New-team]_by_AVP_Studio.avi
Формат : AVI
Формат/Информация : Audio Video Interleave
Размер файла : 745 Мбайт
Продолжительность : 1 ч. 33 м.
Общий поток : 1116 Кбит/сек
Программа кодирования : VirtualDubMod 1.5.10.3 | www.virtualdub-fr.org || (build 2550/release)
Библиотека кодирования : VirtualDubMod build 2550/release

Видео
Идентификатор : 0
Формат : MPEG-4 Visual
Профиль формата : Advanced Simple@L5
Параметр BVOP формата : 1
Параметр QPel формата : Нет
Параметр GMC формата : Без точки перехода
Параметр матрицы формата : Выборочная
Идентификатор кодека : XVID
Идентификатор кодека/Подсказка : XviD
Продолжительность : 1 ч. 33 м.
Битрейт : 978 Кбит/сек
Ширина : 576 пикселей
Высота : 432 пикселя
Соотношение сторон : 4:3
Частота кадров : 25,000 кадров/сек
Цветовое пространство : YUV
Субдискретизация насыщенности : 4:2:0
Битовая глубина : 8 бит
Тип развёртки : Прогрессивная
Метод сжатия : С потерями
Бит/(Пиксели*Кадры) : 0.157
Размер потока : 653 Мбайт (88%)
Библиотека кодирования : XviD 73

Аудио
Идентификатор : 1
Формат : MPEG Audio
Версия формата : Version 1
Профиль формата : Layer 3
Идентификатор кодека : 55
Идентификатор кодека/Подсказка : MP3
Продолжительность : 1 ч. 33 м.
Вид битрейта : Постоянный
Битрейт : 128 Кбит/сек
Каналы : 2 канала
Частота : 48,0 КГц
Метод сжатия : С потерями
Размер потока : 85,5 Мбайт (11%)
Выравнивание : Соединение по промежуткам
Продолжительность промежутка : 40 мс. (1,00 видеокадр)
Время предзагрузки промежутка : 504 мс.
Библиотека кодирования : LAME3.99r
Настройки программы : -m s -V 4 -q 2 -lowpass 17 -b 128
pb.wtf



Скачать Ветер через торрент http://s019.radikal.ru/i616/1710/56/4971314508ac.png Скачать фильм Ветер через торрент бесплантно в хорошем качестве Описание:Фильм "Ветер" завершил "комсомольскую" трилогию А. Алова и В. Наумова (ее начали "Тревожная молодость" и "Павел ... 10 10 1
Info! Золотая раздача, скачанное не засчитывается.
Торрент: Зарегистрирован [2017-10-10 09:42] · скачан: 21 раз
Статус: √ проверено
Размер: 745 MB
Как cкачать? Как скачать Ветер через торрент | qTorrent

% Раздел Тема Автор DL S | L
Фильмы 2019-2020 [DVDrip, WEB-DLRip, HDrip] (DUB, MVO) [ 1.46 GB ] Восточный ветер 4: Легенда о Воине / Ostwind: Aris Ankunft / Windstorm 4: Ari's Arrival [2019 BDRip] bober100 Скачать
3 | 0
Фильмы (Blu-ray, BD-Remux, HDDVD) [ 17.97 GB ] Восточный ветер 4: Легенда о Воине / Ostwind: Aris Ankunft / Windstorm 4: Ari's Arrival [2019 BD Remux 1080p] bober100 Скачать
1 | 0
Фильмы с авторской озвучкой [ 1.46 GB ] Ветераны зарубежных войн / VFW [2019 BDRip] AVO [Гаевский] Twi7ter Скачать
8 | 0
T Фильмы (Blu-ray, BD-Remux, HDDVD) [ 19.54 GB ] Ветераны зарубежных войн / VFW [2019 BDRemux 1080p] [AVO] + [VO] killermax2013 Скачать
1 | 0
S.T.A.L.K.E.R. [ 2.96 GB ] S.T.A.L.K.E.R.: Clear Sky/С.Т.А.Л.К.Е.Р.: Чистое небо + Мод: Ветер перемен URII GERASIMOV Скачать
1 | 0
Фильмы 2018 [DVDrip, WEB-DLRip, HDrip] (DUB, MVO) [ 2.19 GB ] Южный ветер / Juzni vetar / South Wind [2018 BDRip] bober100 Скачать
2 | 0
Фильмы [HD 720p, 1080p] (Хороший звук DUB, MVO) [ 8.69 GB ] Южный ветер / Juzni vetar / South Wind [2018 BDRip 1080p] bober100 Скачать
4 | 0

28-11-2019 20:33  

Отключить всю рекламу на сайте

    Дорогой пользователь! Огромная просьба, поблагодарите релизера, оцените раздачу и оставьте свои комментарий, если Вы скачали Ветер через торрент бесплатно! Внесите свою лепту в развитие PiratBit!
    Комментировать посты могут только пользователи прошедшие не сложную регистрацию
    Показать сообщения:    

    Ветер через торрент
    Скачать бесплатно Ветер
    Ветер скачать торрент
    Ветер смотреть онлайн
    Cкачать фильм Ветер бесплатно
    Ветер скачать торрент в хорошем качестве
    Ветер смотреть онлайн бесплатно в хорошем качестве


    Вы не можете начинать темы
    Вы не можете отвечать на сообщения
    Вы не можете редактировать свои сообщения
    Вы не можете удалять свои сообщения
    Вы не можете голосовать в опросах
    Вы не можете прикреплять файлы к сообщениям
    Вы можете скачивать файлы