2 сезон

iTunes

MVO

1

2 сезон

iTunes

iTunes

1 сезон

RePack

30

Новинка

ВАЖНО

ИГРА 18+

pack

RePack

MK11
pack

Легкие деньги

RePack

jed

RePack

fifa19

RePack

RDR2

RePack

NEED FOR SPEED™ PAYBACK

4 сезон

9 сезон

Бесстыжие 9 сезон

Все сериалы

все сериалы на PB.wtf

RePack

FAR CRY 5

Anonymous, доброе утро, мы не успеваем собрать деньги на оплату серверов за декабрь и январь, помогите нам пожалуйста в это трудное время. В качестве благодарности мы отключим Вам всю рекламу на сайте (укажите свой ник в строку Ваше имя)!

×
  
Magnet ссылка

Малыш на драйве / Baby Driver (Эдгар Райт / Edgar Wright) [2017, Великобритания, США, боевик, триллер, криминал, BDRip-AVC] Dub [Лицензия] pb.wtf

Малыш на драйве через торрент pb.wtf

Раздают: 1 [ 0 KB/s ]
Размер: 2.99 GB | Добавлен: 3 года 2 мес. назад | Торрент скачан:531 раз
Скачать  

10-10-2017 13:28 Малыш на драйве Скачать торрент  

Малыш на драйве
Baby Driver

«Сколько треков нужно для хорошего ограбления?»


Страна: Великобритания, США
Жанр: боевик, триллер, криминал, музыка

Год выпуска: 2017
Продолжительность: 01:52:40

Перевод: Профессиональный (полное дублирование) [Blu-ray EUR]
Субтитры: русские (форсированные, полные), английские (полные, SDH, SDH цветные)
Оригинальная аудиодорожка: английский

Режиссер: Эдгар Райт / Edgar Wright

В ролях: Энсел Элгорт, Кевин Спейси, Лили Джеймс, Эйса Гонсалес, Джон Хэмм, Джейми Фокс, Джон Бернтал, Фли, Лэнни Джун, Мика Ховард, Морган Браун, Морс Диггз

Описание:
Молодой парень по прозвищу Малыш обожает стильную музыку, быструю езду и адреналин в крови. Вся его жизнь - это сплошные погони и перестрелки, ведь он работает водителем, который помогает бандитам скрыться с места преступления. Однажды он по-настоящему влюбляется и решает выйти из игры, но сначала ему предстоит выполнить еще одно задание, которое вполне может оказаться последним в его жизни.



Релиз:

Автор рипа: stalkerok | Моя группа

Сэмпл

Качество видео: BDRip-AVC [Baby Driver (2017) Blu-ray Disc - BLUEBIRD]
Формат видео: MKV
Видео кодек: AVC
Аудио кодек: AC3
Видео: 2903 Кбит/сек, 1152*482 (2,40:1), в 23,976 (24000/1001) кадра/сек, AVC
Аудио №1: русский, 448 Кбит/сек, 48 КГц, 5.1, AC3
Аудио №2: английский, 448 Кбит/сек, 48 КГц, 5.1, AC3
Навигация по главам: есть

x264 [info]: frame I:1643 Avg QP:17.70 size: 68619
x264 [info]: frame P:37603 Avg QP:19.26 size: 29280
x264 [info]: frame B:122850 Avg QP:21.33 size: 10092

Общее
Уникальный идентификатор : 229187483180562501609846129929605604803 (0xAC6BE75727806AE284197B6155FBE5C3)
Полное имя : M:\!Rips2017\Baby Driver\Baby.Driver.2017.BDRip-AVC.RUS.ENG..stalkerok.new-team.mkv
Формат : Matroska
Версия формата : Version 4 / Version 2
Размер файла : 2,99 Гбайт
Продолжительность : 1 ч. 52 м.
Общий поток : 3802 Кбит/сек
Название фильма : Baby Driver (2017) (Rip by stalkerok)
Дата кодирования : UTC 2017-11-07 11:44:29
Программа кодирования : mkvmerge v8.6.1 ('Flying') 64bit
Библиотека кодирования : libebml v1.3.3 + libmatroska v1.4.4

Видео
Идентификатор : 1
Формат : AVC
Формат/Информация : Advanced Video Codec
Профиль формата : High@L4.1
Параметр CABAC формата : Да
Параметр ReFrames формата : 13 кадров
Идентификатор кодека : V_MPEG4/ISO/AVC
Продолжительность : 1 ч. 52 м.
Битрейт : 2903 Кбит/сек
Ширина : 1152 пикселя
Высота : 482 пикселя
Соотношение сторон : 2,40:1
Режим частоты кадров : Постоянный
Частота кадров : 23,976 (24000/1001) кадра/сек
Цветовое пространство : YUV
Субдискретизация насыщенности : 4:2:0
Битовая глубина : 8 бит
Тип развёртки : Прогрессивная
Бит/(Пиксели*Кадры) : 0.218
Размер потока : 2,29 Гбайт (76%)
Заголовок : Baby Driver (2017) (Rip by stalkerok)
Библиотека кодирования : x264 core 150 r2833kMod df79067
Настройки программы : cabac=1 / ref=13 / deblock=1:-3:-2 / analyse=0x3:0x133 / me=umh / subme=11 / psy=1 / fade_compensate=0.00 / psy_rd=1.00:0.00 / mixed_ref=1 / me_range=32 / chroma_me=1 / trellis=2 / 8x8dct=1 / cqm=0 / deadzone=21,11 / fast_pskip=0 / chroma_qp_offset=-2 / threads=12 / lookahead_threads=3 / sliced_threads=0 / nr=0 / decimate=1 / interlaced=0 / bluray_compat=0 / constrained_intra=0 / bframes=13 / b_pyramid=2 / b_adapt=2 / b_bias=0 / direct=3 / weightb=1 / open_gop=0 / weightp=2 / keyint=240 / keyint_min=23 / scenecut=40 / intra_refresh=0 / rc_lookahead=60 / rc=crf / mbtree=0 / crf=18.9000 / qcomp=0.65 / qpmin=0 / qpmax=69 / qpstep=4 / vbv_maxrate=50000 / vbv_bufsize=62500 / crf_max=0.0 / nal_hrd=none / filler=0 / ip_ratio=1.40 / pb_ratio=1.30 / aq=3:0.80 / zones=156541,162095,q=32
Default : Да
Forced : Нет

Аудио #1
Идентификатор : 2
Формат : AC-3
Формат/Информация : Audio Coding 3
Расширение режима : CM (complete main)
Параметр Endianness формата : Big
Идентификатор кодека : A_AC3
Продолжительность : 1 ч. 52 м.
Вид битрейта : Постоянный
Битрейт : 448 Кбит/сек
Каналы : 6 каналов
Расположение каналов : Front: L C R, Side: L R, LFE
Частота : 48,0 КГц
Частота кадров : 31,250 кадров/сек (1536 spf)
Метод сжатия : С потерями
Размер потока : 361 Мбайт (12%)
Язык : Russian
Default : Да
Forced : Нет

Аудио #2
Идентификатор : 3
Формат : AC-3
Формат/Информация : Audio Coding 3
Расширение режима : CM (complete main)
Параметр Endianness формата : Big
Идентификатор кодека : A_AC3
Продолжительность : 1 ч. 52 м.
Вид битрейта : Постоянный
Битрейт : 448 Кбит/сек
Каналы : 6 каналов
Расположение каналов : Front: L C R, Side: L R, LFE
Частота : 48,0 КГц
Частота кадров : 31,250 кадров/сек (1536 spf)
Метод сжатия : С потерями
Размер потока : 361 Мбайт (12%)
Язык : English
Default : Нет
Forced : Нет

Текст #1
Идентификатор : 4
Формат : UTF-8
Идентификатор кодека : S_TEXT/UTF8
Идентификатор кодека/Информация : UTF-8 Plain Text
Продолжительность : 1 ч. 51 м.
Битрейт : 3 бит/сек
Count of elements : 93
Размер потока : 2,65 Кбайт (0%)
Заголовок : Forced
Язык : Russian
Default : Да
Forced : Нет

Текст #2
Идентификатор : 5
Формат : UTF-8
Идентификатор кодека : S_TEXT/UTF8
Идентификатор кодека/Информация : UTF-8 Plain Text
Продолжительность : 1 ч. 51 м.
Битрейт : 96 бит/сек
Count of elements : 1602
Размер потока : 78,7 Кбайт (0%)
Язык : Russian
Default : Нет
Forced : Нет

Текст #3
Идентификатор : 6
Формат : UTF-8
Идентификатор кодека : S_TEXT/UTF8
Идентификатор кодека/Информация : UTF-8 Plain Text
Продолжительность : 1 ч. 50 м.
Битрейт : 67 бит/сек
Count of elements : 1915
Размер потока : 54,6 Кбайт (0%)
Язык : English
Default : Нет
Forced : Нет

Текст #4
Идентификатор : 7
Формат : UTF-8
Идентификатор кодека : S_TEXT/UTF8
Идентификатор кодека/Информация : UTF-8 Plain Text
Продолжительность : 1 ч. 51 м.
Битрейт : 79 бит/сек
Count of elements : 2275
Размер потока : 65,1 Кбайт (0%)
Заголовок : SDH
Язык : English
Default : Нет
Forced : Нет

Текст #5
Идентификатор : 8
Формат : UTF-8
Идентификатор кодека : S_TEXT/UTF8
Идентификатор кодека/Информация : UTF-8 Plain Text
Продолжительность : 1 ч. 51 м.
Битрейт : 147 бит/сек
Count of elements : 2156
Размер потока : 121 Кбайт (0%)
Заголовок : SDH Colored
Язык : English
Default : Нет
Forced : Нет

Меню
00:00:00.000 : en:Chapter 1
00:09:11.049 : en:Chapter 2
00:13:30.475 : en:Chapter 3
00:20:58.173 : en:Chapter 4
00:25:17.598 : en:Chapter 5
00:33:07.902 : en:Chapter 6
00:43:43.244 : en:Chapter 7
00:48:15.641 : en:Chapter 8
00:53:39.548 : en:Chapter 9
00:58:51.902 : en:Chapter 10
01:05:23.543 : en:Chapter 11
01:11:34.081 : en:Chapter 12
01:19:17.002 : en:Chapter 13
01:30:30.675 : en:Chapter 14
01:38:04.167 : en:Chapter 15
01:43:30.412 : en:Chapter 16
скриншот   скриншот   скриншот   скриншот   скриншот   скриншот  
pb.wtf



Скачать Малыш на драйве через торрент http://i6.imageban.ru/out/2017/09/18/2ff75c0c358795c5946784cc1680714d.png Скачать фильм Малыш на драйве через торрент бесплантно в хорошем качестве Описание:Молодой парень по прозвищу Малыш обожает стильную музыку, быструю езду и адреналин в крови. Вся его жизнь - это сплошные погони и ... 9 10 23
Info! Золотая раздача, скачанное не засчитывается.
Торрент: Зарегистрирован [2017-11-07 12:21] · скачан: 531 раз
Статус: √ проверено
Размер: 2.99 GB
Как cкачать? Как скачать Малыш на драйве через торрент | UTorrent

% Раздел Тема Автор DL S | L
Ultra HD (UHD: 2K, 4K, 8K) — видео сверхвысокой чёткости [ 49.02 GB ] Малыш на драйве / Baby Driver [2017 UHD BDRemux 2160p] DUB [ BD CEE] + 3xAVO sheker187 Скачать
1 | 0
Фильмы (Blu-ray, BD-Remux, HDDVD) [ 22.62 GB ] Малыш на драйве / Baby Driver [2017 музыка BD Remux 1080p] AVO [М.Чадов] +MVO [Paradox & Omskbird] +DUB [] bober100 Скачать
1 | 0
Ultra HD (UHD: 2K, 4K, 8K) — видео сверхвысокой чёткости [ 53.73 GB ] Малыш на драйве / Baby Driver [2017 UHD Blu-ray 2160p] - [ BD CEE] sheker187 Скачать
1 | 0
Фильмы 2017 [DVDrip, WEB-DLRip, HDrip] (DUB, MVO) [ 760 MB ] Малыш на драйве / Baby Driver [2017 BDRip-AVC] sokol_ok Скачать
2 | 0
Фильмы 2017 [DVDrip, WEB-DLRip, HDrip] (DUB, MVO) [ 1.46 GB ] Малыш на драйве / Baby Driver [2017 BDRip] - [] Twi7ter Скачать
4 | 0
Фильмы [HD 720p, 1080p] (Хороший звук DUB, MVO) [ 5 GB ] Малыш на драйве / Baby Driver [2017 музыка BDRip 720p] DUB+MVO [] bober100 Скачать
1 | 0
Фильмы 2017 [DVDrip, WEB-DLRip, HDrip] (DUB, MVO) [ 3.08 GB ] Малыш на драйве / Baby Driver [2017 музыка BDRip-AVC] DUB+MVO bober100 Скачать
1 | 0


Последний раз редактировалось: sokol_ok (2017-11-07 12:21), всего редактировалось 1 раз

28-11-2019 20:33  

Отключить всю рекламу на сайте

20-10-2017 09:58 Малыш на драйве Скачать торрент  

я редко оставляю комменты , но тут не сдержался ! откуда такая высокая оценка не понимаю ? маялся маялся и с 3го раза(засыпал каждый раз) так и не смог досмотреть эту в полном понимании этого слова до конца.pb.wtf



23-10-2017 16:28 Малыш на драйве Скачать торрент  

RODI писал(а):

я редко оставляю комменты , но тут не сдержался ! откуда такая высокая оценка не понимаю ? маялся маялся и с 3го раза(засыпал каждый раз) так и не смог досмотреть эту в полном понимании этого слова до конца.

+1, говнище. Замануха в виде актерского состава и саундтрека.pb.wtf



07-11-2017 12:21 Малыш на драйве Скачать торрент  

Замена на звук с Blu-ray EURpb.wtf



07-11-2017 21:45 Малыш на драйве Скачать торрент  

Эдгара Райта голливуд и высушил. А сколько надежд былоpb.wtf



    Дорогой пользователь! Огромная просьба, поблагодарите релизера, оцените раздачу и оставьте свои комментарий, если Вы скачали Малыш на драйве через торрент бесплатно! Внесите свою лепту в развитие PiratBit!
    Комментировать посты могут только пользователи прошедшие не сложную регистрацию
    Показать сообщения:    

    Малыш на драйве через торрент
    Скачать бесплатно Малыш на драйве
    Малыш на драйве скачать торрент
    Малыш на драйве смотреть онлайн
    Cкачать фильм Малыш на драйве бесплатно
    Малыш на драйве скачать торрент в хорошем качестве
    Малыш на драйве смотреть онлайн бесплатно в хорошем качестве


    Вы не можете начинать темы
    Вы не можете отвечать на сообщения
    Вы не можете редактировать свои сообщения
    Вы не можете удалять свои сообщения
    Вы не можете голосовать в опросах
    Вы не можете прикреплять файлы к сообщениям
    Вы можете скачивать файлы