Ссылка на приватное зеркало нашего сайта всего за 1$. Внимание количество ограничено!!!

2 сезон

iTunes

1 сезон

1

2 сезон

2 сезон

iTunes

1 сезон

RePack

30

Новинка

ВАЖНО

ИГРА 18+

pack

RePack

MK11
pack

Забери бонус

RePack

jed

!!Акция!!

Alien_Rage

RePack

fifa19

RePack

Assassins Creed: Odyssey

RePack

NEED FOR SPEED™ PAYBACK

4 сезон

9 сезон

Бесстыжие 9 сезон

Все сериалы

все сериалы на PB.wtf

RePack

FAR CRY 5
  

Электрические сны Филипа К. Дика / Philip K. Dick's Electric Dream / Сезон: 1 / Серии 1-10 из 10 (Дэвид Фарр / David Farr) [2017, фантастика, WEB-DL 1080p] [MVO] (Good People) pb.wtf

Электрические сны Филипа К. Дика через торрент pb.wtf

Размер: 27.86 GB | Добавлен: 2 года 10 мес. назад | Торрент скачан:15 раз
Скачать  

10-10-2017 17:20 Электрические сны Филипа К. Дика Скачать торрент  

Электрические сны Филипа К. Дика / Philip K. Dick's Electric Dreams Год выпуска: 2017
Страна: США, Великобритания
Жанр: фантастика
Продолжительность: 1x ~01:00:00
Перевод: Профессиональный (многоголосый закадровый) Студия Good People
Субтитры: английские

Режиссёр: Дэвид Фарр / David Farr, Франческа Грегорини / Francesca Gregorini, Том Харпер / Tom Harper

В ролях: Алена Леуан, Расс Панзарелла, Стив Бушеми, Эсси Дэвис, Ричард Мэдден, Джек Рейнор, Тимоти Сполл, Брайан Крэнстон и др.

Описание: Перед вами экранизации нескольких известных произведений одного из самых популярных авторов своего времени. Филип К. Дик - человек, который изменил подход к повествованию простых историй. Его произведения наполнились оригинальными персонажами, удивительной атмосферой и уникальным внешним фоном. Перенос книжных реалий на телевизионную картинку произошел в проекте "Электрические сны Филипа К.Дика", который сейчас перед вами. Приглашаем вас ознакомиться в формате сериала с экранизацией нескольких значимых рассказов авторов. Перед вами такие интереснейшие истории, как "Унылый незнакомец", "Автофабрика" и "Проездной билет". Помимо вышеназванных экранизаций вас ждут также и другие перенесенные на экран произведения, в которых авторами был учтен сюжет и глубокая мысль автора.

Сэмпл

Качество: WEB-DL 1080p
Формат: MKV
Видео кодек: AVC
Аудио кодек: AC3, E-AC3
Видео: H264, 1920x1080 (16:9), 23.976 fps, ~6100kbps, ~0.121 bit/pixel
Аудио 1: Dolby AC3 48000Hz 5.1 640Kbps, 3 серия: Dolby AC3 48000Hz stereo 224Kbps Русский
Аудио 2: Dolby E-AC3 48000Hz 5.1 640Kbps, 3 серия: Dolby E-AC3 48000Hz stereo 224Kbps Оригинал (Английский)
General
Unique ID                   : 185129568539867925370753120624894541138 (0x8B46A8705835ABF79AD74E31E983FD52)
Complete name               : Philip.K.Dicks.Electric.Dreams.S01E01.The.Hood.Maker.1080p.STAN.WEB-DL.DDP5.1.H.264-GoodPeople.mkv
Format                      : Matroska
Format version              : Version 2
File size                   : 2.76 GiB
Duration                    : 54mn 20s
Overall bit rate            : 7 262 Kbps
Encoded date                : UTC 2017-10-09 17:26:03
Writing application         : mkvmerge v5.4.0 ('Piper') built on Mar 10 2012 13:34:39
Writing library             : libebml v1.2.3 + libmatroska v1.3.0
DURATION                    : 00:52:42.956000000
NUMBER_OF_FRAMES            : 821
NUMBER_OF_BYTES             : 23832
_STATISTICS_WRITING_APP     : mkvmerge v9.3.1 ('Mask Machine') 64bit
_STATISTICS_WRITING_DATE_UT : 2017-09-18 14:04:34
_STATISTICS_TAGS            : BPS DURATION NUMBER_OF_FRAMES NUMBER_OF_BYTES

Video
ID                          : 1
Format                      : AVC
Format/Info                 : Advanced Video Codec
Format profile              : High@L4
Format settings, CABAC      : Yes
Format settings, ReFrames   : 4 frames
Codec ID                    : V_MPEG4/ISO/AVC
Duration                    : 54mn 20s
Bit rate                    : 6 029 Kbps
Width                       : 1 920 pixels
Height                      : 1 080 pixels
Display aspect ratio        : 16:9
Frame rate mode             : Constant
Frame rate                  : 23.976 fps
Color space                 : YUV
Chroma subsampling          : 4:2:0
Bit depth                   : 8 bits
Scan type                   : Progressive
Bits/(Pixel*Frame)          : 0.121
Stream size                 : 2.29 GiB (83%)
Writing library             : Zencoder Video Encoding System
Default                     : Yes
Forced                      : No

Audio #1
ID                          : 2
Format                      : AC-3
Format/Info                 : Audio Coding 3
Mode extension              : CM (complete main)
Format settings, Endianness : Big
Codec ID                    : A_AC3
Duration                    : 54mn 20s
Bit rate mode               : Constant
Bit rate                    : 640 Kbps
Channel(s)                  : 6 channels
Channel positions           : Front: L C R, Side: L R, LFE
Sampling rate               : 48.0 KHz
Compression mode            : Lossy
Stream size                 : 249 MiB (9%)
Language                    : Russian
Default                     : Yes
Forced                      : No

Audio #2
ID                          : 3
Format                      : E-AC-3
Format/Info                 : Audio Coding 3
Format settings, Endianness : Big
Codec ID                    : A_EAC3
Duration                    : 54mn 20s
Bit rate mode               : Constant
Bit rate                    : 448 Kbps
Channel(s)                  : 6 channels
Channel positions           : Front: L C R, Side: L R, LFE
Sampling rate               : 48.0 KHz
Compression mode            : Lossy
Stream size                 : 174 MiB (6%)
Language                    : English
Default                     : No
Forced                      : No

Text
ID                          : 4
Format                      : UTF-8
Codec ID                    : S_TEXT/UTF8
Codec ID/Info               : UTF-8 Plain Text
Language                    : English
Default                     : No
Forced                      : No
скриншот  скриншот  скриншот  
Внимание! Раздача ведётся путём добавления новых серий; при каждом добавлении создётся новый торрент. Чтобы начать докачку новой серии, пользователям необходимо сделать следующее:
Остановить скачивание.
Удалить старый торрент у себя из клиента (старые серии удалять не надо).
Скачать новый торрент и запустить его у себя в клиенте вместо старого, при этом указать клиенту путь в старую папку куда и должно происходить скачивание новых серий.

Ваш клиент при этом должен произвести хеширование (проверку) старой папки (если не производит сам - помогите ему сделать это), и будет докачивать только те серии которых у вас ещё нет. Старые серии при этом не удаляются, а продолжают раздаваться!
Eсли вы уже удалили старые серии, то предотвратить повторную закачку старых серий можно, отжав галочку в соответсвующих местах при запуске нового торрента. По возможности, желательно не удалять старые серии как можно дольше чтобы релизёр не столько продолжал раздавать старые серии, а смог сконцентрироваться на новых.
pb.wtf



Скачать Электрические сны Филипа К. Дика через торрент http://i89.fastpic.ru/big/2017/1010/fa/0c027d9cd46f54329f596a5d64f0e5fa.png Скачать фильм Электрические сны Филипа К. Дика через торрент бесплантно в хорошем качестве Описание: Перед вами экранизации нескольких известных произведений одного из самых популярных авторов своего времени. Филип К. Дик - ... 8.5 10 6
Торрент: Зарегистрирован [2018-01-28 09:52] · скачан: 15 раз
Статус: √ проверено
Размер: 27.86 GB
Как cкачать? Как скачать Электрические сны Филипа К. Дика через торрент | qTorrent



Последний раз редактировалось: killermax2013 (2018-01-28 09:52), всего редактировалось 2 раз(а)

28-11-2019 20:33  

Отключить всю рекламу на сайте

    Дорогой пользователь! Огромная просьба, поблагодарите релизера, оцените раздачу и оставьте свои комментарий, если Вы скачали Электрические сны Филипа К. Дика через торрент бесплатно! Внесите свою лепту в развитие PiratBit!
    Комментировать посты могут только пользователи прошедшие не сложную регистрацию
    Показать сообщения:    

    Электрические сны Филипа К. Дика через торрент
    Скачать бесплатно Электрические сны Филипа К. Дика
    Электрические сны Филипа К. Дика скачать торрент
    Электрические сны Филипа К. Дика смотреть онлайн
    Cкачать фильм Электрические сны Филипа К. Дика бесплатно
    Электрические сны Филипа К. Дика скачать торрент в хорошем качестве
    Электрические сны Филипа К. Дика смотреть онлайн бесплатно в хорошем качестве


    Вы не можете начинать темы
    Вы не можете отвечать на сообщения
    Вы не можете редактировать свои сообщения
    Вы не можете удалять свои сообщения
    Вы не можете голосовать в опросах
    Вы не можете прикреплять файлы к сообщениям
    Вы можете скачивать файлы