Ссылка на приватное зеркало нашего сайта всего за 1$. Внимание количество ограничено!!!

2 сезон

iTunes

1 сезон

1

2 сезон

2 сезон

iTunes

1 сезон

RePack

30

Ultimate

ВАЖНО

ИГРА 18+

pack

RePack

MK11
pack

Забери бонус

RePack

jed

!!Акция!!

Alien_Rage

RePack

fifa19

RePack

Assassins Creed: Odyssey

RePack

NEED FOR SPEED™ PAYBACK

4 сезон

9 сезон

Бесстыжие 9 сезон

Все сериалы

все сериалы на PB.wtf

RePack

FAR CRY 5
  

Над глубиной: Хроника выживания / Cage Dive (Джералд Рашионато) [2017 г., Триллер, ужасы, драма, BD Remux, Дубляж iTunes] pb.wtf

Над глубиной: Хроника выживания через торрент pb.wtf

Размер: 15.04 GB | Добавлен: 3 года 1 мес. назад | Торрент скачан:46 раз
Скачать  

10-10-2017 20:54 Над глубиной: Хроника выживания Скачать торрент  

Над глубиной: Хроника выживания / Cage Dive
Год выпуска: 2017
Страна: Австралия
Жанр: Триллер, ужасы, драма
Продолжительность: 01:20:40
Перевод: Дубляж (iTunes) +Оригинал
Субтитры: Нет

Режиссер: Джералд Рашионато

В ролях: Джоэль Хоган, Джош Поттхофф, Меган Пета Хилл, Пит Вэлли, Марк Фелл, Кристофер Коллен, Тара Рэйт, Крис Бэс

Описание: Два парня и девушка приехали из США в поисках опасных приключений, которые изначально планировались записать на видео. Речь идет о глубоководном погружении в клетке к Большой белой акуле близ берегов Австралии. Изначально все было спокойно: молодые люди сняли яхту, веселились, пили, ели, одним словом, наслаждались жизнью. Но в один роковой момент яхту перевернула гигантская волна, выкинув всех за борт на съедение той самой акуле, которую компания успела изрядно позлить, находясь в клетке. «Над глубиной: Хроника выживания» является псевдодокументальным фильмом, снятым Джералдом Расчионато. Сюжет фильма повествует о попытках молодых людей, несмотря на всю кажущуюся безысходность ситуации, все-таки выжить.

Качество: BD Remux
Формат: MKV
Видео кодек: AVC
Аудио кодек: AC3-DTS
Видео: MPEG-4 AVC, (1920x1080),24300 Кбит/с, 23.976 кадра/сек
Аудио#1: AC3, 6 ch,384 kbps (Rus) 48.0 KHz дублированный (iTunes)
Аудио#2: DTS, 6 ch,1509 kbps (Eng) 48.0 KHz Оригинал
скриншот   скриншот   скриншот  

Тип потока: Видео
Длительность: 01:20:40
Кодек: AVC
Кодек/описание: Advanced Video Codec
Кодек/профиль: High@L4.1
Кодек/ID: V_MPEG4/ISO/AVC
Кодек/CABAC: Yes
Кодек/ReFrames: 4 frames
Размеры изображения: 1920 x 1080 (16:9)
Частота кадров: 23.976 fps
Частота кадров/тип: Constant
Размер потока: 13.7 GiB (91%)
Битрейт: 24.3 Mbps
Битрейт/макс: 37.0 Mbps
Битрейт/тип: VBR
Цветовое пространство: YUV
Тип развёртки: Progressive
Колориметрия: 4:2:0
Глубина: 8 bits
Название: Open.Water.3.Cage.Dive.2017.BDREMUX 1080p
:
Тип потока: Звук #1
Язык: Russian
Название: iTunes
Длительность: 01:20:40.342
Кодек: AC-3
Кодек/описание: Audio Coding 3
Кодек/ID: A_AC3
Частота дискретизации: 48.0 KHz
Каналов: 6 channels
Битрейт: 384 Kbps
Битрейт/тип: Constant
Размер потока: 222 MiB (1%)
Глубина: 16 bits
Метод сжатия: Lossy
:
Тип потока: Звук #2
Язык: English
Название: Original
Длительность: 01:20:40.342
Кодек: DTS
Кодек/описание: Digital Theater Systems
Кодек/ID: A_DTS
Частота дискретизации: 48.0 KHz
Каналов: 6 channels
Битрейт: 1 509 Kbps
Битрейт/тип: Constant
Размер потока: 871 MiB (6%)
Глубина: 24 bits
Метод сжатия: Lossy

pb.wtf



Скачать Над глубиной: Хроника выживания через торрент http://pic1.kartinco.top/images/11/zxjk1.jpg Скачать фильм Над глубиной: Хроника выживания через торрент бесплантно в хорошем качестве Описание: Два парня и девушка приехали из США в поисках опасных приключений, которые изначально планировались записать на видео. Речь идет ... 10 10 3
Торрент: Зарегистрирован [2017-10-10 20:54] · скачан: 46 раз
Статус: √ проверено
Размер: 15.04 GB
Как cкачать? Как скачать Над глубиной: Хроника выживания через торрент | qTorrent

% Раздел Тема Автор DL S | L
Фильмы 2017 [DVDrip, WEB-DLRip, HDrip] (DUB, MVO) [ 1.46 GB ] Над глубиной: Хроника выживания / Cage Dive [2017 BDRip] DUB [ R5] bober100 Скачать
1 | 0
Фильмы (WEB-DL 720p, 1080p) [ 2.69 GB ] Над глубиной: Хроника выживания / Cage Dive [2017 WEB-DL 720p] bober100 Скачать
1 | 0
Фильмы 2017 [DVDrip, WEB-DLRip, HDrip] (DUB, MVO) [ 2.51 GB ] Над глубиной: Хроника выживания / Cage Dive [2017 WEB-DLRip-AVC] bober100 Скачать
1 | 0
Фильмы (WEB-DL 720p, 1080p) [ 3.17 GB ] Над глубиной: Хроника выживания / Cage Dive [2017 WEB-DL 1080p] bober100 Скачать
1 | 0

28-11-2019 20:33  

Отключить всю рекламу на сайте

    Дорогой пользователь! Огромная просьба, поблагодарите релизера, оцените раздачу и оставьте свои комментарий, если Вы скачали Над глубиной: Хроника выживания через торрент бесплатно! Внесите свою лепту в развитие PiratBit!
    Комментировать посты могут только пользователи прошедшие не сложную регистрацию
    Показать сообщения:    

    Над глубиной: Хроника выживания через торрент
    Скачать бесплатно Над глубиной: Хроника выживания
    Над глубиной: Хроника выживания скачать торрент
    Над глубиной: Хроника выживания смотреть онлайн
    Cкачать фильм Над глубиной: Хроника выживания бесплатно
    Над глубиной: Хроника выживания скачать торрент в хорошем качестве
    Над глубиной: Хроника выживания смотреть онлайн бесплатно в хорошем качестве


    Вы не можете начинать темы
    Вы не можете отвечать на сообщения
    Вы не можете редактировать свои сообщения
    Вы не можете удалять свои сообщения
    Вы не можете голосовать в опросах
    Вы не можете прикреплять файлы к сообщениям
    Вы можете скачивать файлы