Ссылка на приватное зеркало нашего сайта всего за 1$. Внимание количество ограничено!!!

2 сезон

iTunes

1 сезон

1

2 сезон

2 сезон

iTunes

1 сезон

RePack

30

Новинка

ВАЖНО

ИГРА 18+

pack

RePack

MK11
pack

Забери бонус

RePack

jed

!!Акция!!

Alien_Rage

RePack

fifa19

RePack

Assassins Creed: Odyssey

RePack

NEED FOR SPEED™ PAYBACK

4 сезон

9 сезон

Бесстыжие 9 сезон

Все сериалы

все сериалы на PB.wtf

RePack

FAR CRY 5
  

Легенды завтрашнего дня / DC's Legends of Tomorrow / Сезон: 3 / Серии: 1-18 из 18 (Роб Сайденгланц, Мейрзи Альмас, Дэвид Геддес) [2017, триллер , HDTVRip ] MVO [Coldfilm] pb.wtf

Легенды завтрашнего дня через торрент pb.wtf

Размер: 8.85 GB | Добавлен: 2 года 7 мес. назад | Торрент скачан:59 раз
Скачать  

11-10-2017 06:21 Легенды завтрашнего дня Скачать торрент  

Легенды завтрашнего дня / DC's Legends of Tomorrow
Год выпуска: 2017
Страна: США
Жанр: триллер
Продолжительность: ~00:43:00
Перевод: Любительский (многоголосый) | ColdFilm
Субтитры: отсутствуют

Режиссер: Роб Сайденгланц, Мейрзи Альмас, Дэвид Геддес

rating

В ролях:

Виктор Гарбер, Брэндон Рут, Артур Дарвилл, Кейти Лотц, Франц Драмех, Эми Пембертон, Доминик Пёрселл, Сиара Рене, Вентворт Миллер

Описание:

Увидев будущее, которого обязательно нужно избежать, Рип Хантер, путешественник во времени, собирает команду из героев и злодеев, чтобы противостоять смертельной угрозе. На кону стоит не только наша планета, но и всё время в целом. Сможет ли эта команда победить бессмертное зло, абсолютно непохожее на то, что они видели раньше..?

Качество: WEB-DLRip, HDTVRip
Формат: AVI
Видео кодек: XviD
Аудио кодек: AC3

Видео: 720x400 (16:9), 29.970 fps, XviD ~1 500 kbps avg
Аудио: 48.0 kHz, AC3 Dolby Digital, 2/0 (L,R) ch, ~192 kbps
скриншот   скриншот   скриншот   скриншот   скриншот  

General
Complete name : DC's Legends of Tomorrow 3DC_Legends_Of_Tomorrow_S03E01.avi
Format : AVI
Format/Info : Audio Video Interleave
File size : 515 MiB
Duration : 42mn 30s
Overall bit rate : 1 693 Kbps
Writing application : VirtualDubMod 1.5.10.2 (build 2540/release)
Writing library : VirtualDubMod build 2540/release

Video
ID : 0
Format : xvid
Codec ID : xvid
Duration : 42mn 30s
Bit rate : 1 490 Kbps
Width : 720 pixels
Height : 400 pixels
Display aspect ratio : 16:9
Frame rate : 29.970 fps
Bits/(Pixel*Frame) : 0.173
Stream size : 453 MiB (88%)

Audio
ID : 1
Format : AC-3
Format/Info : Audio Coding 3
Mode extension : CM (complete main)
Format settings, Endianness : Big
Codec ID : 2000
Duration : 42mn 30s
Bit rate mode : Constant
Bit rate : 192 Kbps
Channel(s) : 2 channels
Channel positions : Front: L R
Sampling rate : 48.0 KHz
Compression mode : Lossy
Stream size : 58.4 MiB (11%)
Alignment : Split accross interleaves
Interleave, duration : 33 ms (1.00 video frame)
Interleave, preload duration : 500 ms

Когда раздача ведётся путём добавления новых серий, при каждом добавлении создётся новый торрент. Чтобы начать докачку новой серии, пользователям необходимо сделать следующее:
(1) остановить скачивание,
(2) удалить старый торрент у себя из клиента (старые серии удалять не надо),
(3) скачать новый торрент и запустить его у себя в клиенте вместо старого, при этом указать клиенту путь в старую папку, куда и должно происходить скачивание новых серий.
Ваш клиент при этом должен произвести хеширование (проверку) старой папки (если не производит сам - помогите ему сделать это), и будет докачивать только те серии, которых у вас ещё нет. Старые серии при этом не удаляются, а продолжают раздаваться!
Eсли вы уже удалили старые серии, то предотвратить повторную закачку старых серий можно, отжав галочку в соответсвующих местах при запуске нового торрента. По возможности, желательно не удалять старые серии как можно дольше, чтобы релизёр не столько продолжал раздавать старые серии, а смог сконцентрироваться на новых.
pb.wtf



Скачать Легенды завтрашнего дня через торрент http://img12.lostpic.net/2017/10/11/e2fe81d32d09d387b5ad9b41b4a94cfd.png Скачать фильм Легенды завтрашнего дня через торрент бесплантно в хорошем качестве Описание: Увидев будущее, которого обязательно нужно избежать, Рип Хантер, путешественник во времени, собирает команду из героев и злодеев, ... 10 10 7
Торрент: Зарегистрирован [2018-04-15 18:26] · скачан: 59 раз
Статус: √ проверено
Размер: 8.85 GB
Как cкачать? Как скачать Легенды завтрашнего дня через торрент | qTorrent

28-11-2019 20:33  

Отключить всю рекламу на сайте

    Дорогой пользователь! Огромная просьба, поблагодарите релизера, оцените раздачу и оставьте свои комментарий, если Вы скачали Легенды завтрашнего дня через торрент бесплатно! Внесите свою лепту в развитие PiratBit!
    Комментировать посты могут только пользователи прошедшие не сложную регистрацию
    Показать сообщения:    

    Легенды завтрашнего дня через торрент
    Скачать бесплатно Легенды завтрашнего дня
    Легенды завтрашнего дня скачать торрент
    Легенды завтрашнего дня смотреть онлайн
    Cкачать фильм Легенды завтрашнего дня бесплатно
    Легенды завтрашнего дня скачать торрент в хорошем качестве
    Легенды завтрашнего дня смотреть онлайн бесплатно в хорошем качестве


    Вы не можете начинать темы
    Вы не можете отвечать на сообщения
    Вы не можете редактировать свои сообщения
    Вы не можете удалять свои сообщения
    Вы не можете голосовать в опросах
    Вы не можете прикреплять файлы к сообщениям
    Вы можете скачивать файлы