>

5.6

iTunes

6.1

MVO

5.7

MVO

1

7.4

1 сезон

6.8

iTunes

7.2

1 сезон

13

6.7

1 сезон

8.3

RePack

30

Deluxe

pack

9.9

Лицензия

ВАЖНО

ИГРА 18+

pack

7.3

RePack

MK11

7.7

RePack

jed

7.8

RePack

fifa19

8.5

RePack

RDR2

RePack

NEED FOR SPEED™ PAYBACK

4 сезон

9 сезон

Бесстыжие 9 сезон

Все сериалы

все сериалы на PB.wtf

RePack

FAR CRY 5

Anonymous, добрый день, мы катастрофически не успеваем собрать деньги на оплату серверов, помогите нам пожалуйста 5,10,15р., для нас важна любая помощь . В качестве благодарности мы отключим Вам всю рекламу на сайте (укажите свой ник в строку Ваше имя)!

×
  
Magnet ссылка

Юность наших отцов (Михаил Калик, Борис Рыцарев) [1958, СССР, драма, история, SATRip от AVP Studio] pb.wtf

Юность наших отцов через торрент pb.wtf

Размер: 1.09 GB | Добавлен: 3 года 11 мес. назад | Торрент скачан:15 раз
Смотреть онлайн Юность наших отцов | Скачать    Ребята, помогите собрать деньги на оплату серверов!!!

11-10-2017 08:31 Юность наших отцов Скачать торрент  

Юность наших отцов
Страна: СССР
Производство: Киностудия им. Горького

Жанр: драма, история
Год выпуска: 1958
Продолжительность: 01:17:15

Перевод: Не требуется
Cубтитры: нет
Оригинальная аудиодорожка: русский

Режиссер: Михаил Калик, Борис Рыцарев

В ролях:
Александр Кутепов, Георгий Юматов, Инна Выходцева, Виталий Четвериков, Виктор Терехов, Геннадий Юхтин, Николай Крючков, Николай Смирнов, Иван Рыжов, Алексей Кельберер, Константин Ерофеев, Виктор Адеев, Николай Граббе, Анатолий Никитин...
Об актёрах подробней

Описание:
По мотивам романа А. Фадеева "Разгром".
Гражданская война. Движется на отдых партизанский отряд под командованием Левинсона. Разных людей связала война. Мрачноватый Морозка; вначале идеалист, а потом трус и дезертир Павел Мечик; Метелица, самый светлый персонаж фильма; разбитная медсестра Варя... Все они до поры до времени связаны общей целью - победить белоказаков, но каждый из них лелеет в душе собственную боль и надежду на счастье. "Создание новой, рождающейся в революционном бытии личности" - так определял основную идею романа сам Фадеев. Но оказывается, что "новая личность" видит свою жизнь и судьбу так же, как и прежняя. Вот только судьба эта оказывается более жестокой.

Источник: DVB
Качество видео: SATRip
Формат видео: AVI

Видео: 704x528 (4:3), 25 fps, XviD ~ 1818 kbps avg, 0.196 bit/pixel
Аудио: 48 kHz, Dolby Digital AC3 2.0, 192 kbps

Раздача от:
Общее
Полное имя : Yunost.nashih.otcov.1958.SATRip_[New-team]_by_AVP_Studio.avi
Формат : AVI
Формат/Информация : Audio Video Interleave
Размер файла : 1,09 Гбайт
Продолжительность : 1 ч. 17 м.
Общий поток : 2019 Кбит/сек
Программа кодирования : VirtualDubMod 1.5.10.3 | www.virtualdub-fr.org || (build 2550/release)
Библиотека кодирования : VirtualDubMod build 2550/release

Видео
Идентификатор : 0
Формат : MPEG-4 Visual
Профиль формата : Advanced Simple@L5
Параметр BVOP формата : 1
Параметр QPel формата : Нет
Параметр GMC формата : Без точки перехода
Параметр матрицы формата : Выборочная
Идентификатор кодека : XVID
Идентификатор кодека/Подсказка : XviD
Продолжительность : 1 ч. 17 м.
Битрейт : 1818 Кбит/сек
Ширина : 704 пикселя
Высота : 528 пикселей
Соотношение сторон : 4:3
Частота кадров : 25,000 кадров/сек
Цветовое пространство : YUV
Субдискретизация насыщенности : 4:2:0
Битовая глубина : 8 бит
Тип развёртки : Прогрессивная
Метод сжатия : С потерями
Бит/(Пиксели*Кадры) : 0.196
Размер потока : 1004 Мбайт (90%)
Библиотека кодирования : XviD 73

Аудио
Идентификатор : 1
Формат : AC-3
Формат/Информация : Audio Coding 3
Параметр Endianness формата : Big
Идентификатор кодека : 2000
Продолжительность : 1 ч. 17 м.
Вид битрейта : Постоянный
Битрейт : 192 Кбит/сек
Каналы : 2 канала
Расположение каналов : Front: L R
Частота : 48,0 КГц
Частота кадров : 31,250 кадров/сек (1536 SPF)
Битовая глубина : 16 бит
Метод сжатия : С потерями
Размер потока : 106 Мбайт (10%)
Выравнивание : Разделение по промежуткам
Продолжительность промежутка : 40 мс. (1,00 видеокадр)
Время предзагрузки промежутка : 500 мс
pb.wtf



Скачать Юность наших отцов через торрент http://s16.radikal.ru/i190/1710/d8/45b914093d8d.png Скачать, смотреть онлайн Юность наших отцов бесплантно в хорошем качестве Описание:По мотивам романа А. Фадеева "Разгром".Гражданская война. Движется на отдых партизанский отряд под командованием Левинсона. Разных ... 10 10 1
Info! Золотая раздача, скачанное не засчитывается.
Торрент: Зарегистрирован [2017-10-11 08:31] · скачан: 15 раз
Статус: √ проверено
Размер: 1.09 GB
Как cкачать? Как скачать Юность наших отцов через торрент | UTorrent

% Раздел Тема Автор DL S | L
Кино СССР [ 1.09 GB ] Юность наших отцов [1958 СССР история SATRip-AVC от AVP Studio] AVP Studio Скачать
1 | 0
Кино СССР [ 746 MB ] Юность наших отцов [1958 СССР история SATRip от AVP Studio] AVP Studio Скачать
1 | 0

28-11-2019 20:33  

Отключить всю рекламу на сайте

    Дорогой пользователь! Огромная просьба, поблагодарите релизера, оцените раздачу и оставьте свои комментарий, если Вы скачали Юность наших отцов через торрент бесплатно!
    Комментировать посты могут только пользователи прошедшие не сложную регистрацию
    Показать сообщения:    

    Юность наших отцов через торрент
    Скачать бесплатно Юность наших отцов
    Юность наших отцов скачать торрент
    Юность наших отцов смотреть онлайн
    Cкачать фильм Юность наших отцов бесплатно
    Юность наших отцов скачать торрент в хорошем качестве
    Юность наших отцов смотреть онлайн бесплатно в хорошем качестве


    Вы не можете начинать темы
    Вы не можете отвечать на сообщения
    Вы не можете редактировать свои сообщения
    Вы не можете удалять свои сообщения
    Вы не можете голосовать в опросах
    Вы не можете прикреплять файлы к сообщениям
    Вы можете скачивать файлы