Ссылка на приватное зеркало нашего сайта всего за 1$. Внимание количество ограничено!!!

2 сезон

iTunes

1 сезон

1

2 сезон

2 сезон

iTunes

1 сезон

RePack

30

Ultimate

ВАЖНО

ИГРА 18+

pack

RePack

MK11
pack

Забери бонус

RePack

jed

!!Акция!!

Alien_Rage

RePack

fifa19

RePack

Assassins Creed: Odyssey

RePack

NEED FOR SPEED™ PAYBACK

4 сезон

9 сезон

Бесстыжие 9 сезон

Все сериалы

все сериалы на PB.wtf

RePack

FAR CRY 5
  

Нулевой Канал: Бесконечный дом / Channel Zero / Сезон: 2 / Серии 1-6 из 6 (Алекс Ферни) [2017, мистика, триллер, ужасы, WEB-DL 1080p] [MVO] (Good People) pb.wtf

Нулевой Канал: Бесконечный дом через торрент pb.wtf

Размер: 16.75 GB | Добавлен: 2 года 11 мес. назад | Торрент скачан:41 раз
Скачать  

11-10-2017 10:52 Нулевой Канал: Бесконечный дом Скачать торрент  

Нулевой Канал: Бесконечный дом / Channel Zero: No-End House Год выпуска: 2017
Страна: США
Жанр: Мистика, триллер, ужасы
Продолжительность: 1x ~00:45:00
Перевод: Профессиональный (многоголосый закадровый) Студия Good People
Субтитры: английские

Режиссёр: Дэвид Фарр / David Farr, Франческа Грегорини / Francesca Gregorini, Том Харпер / Tom Harper

В ролях: Алена Леуан, Расс Панзарелла, Стив Бушеми, Эсси Дэвис, Ричард Мэдден, Джек Рейнор, Тимоти Сполл, Брайан Крэнстон и др.

Описание: Основанный на крипипасте Брайана Рассела второй сезон «Нулевой Канал: Бесконечный дом» рассказывает историю девушки, которая однажды посещает Дом без конца, странный и страшный дом, который состоит из шести по-разному пугающих комнат. Когда Марго возвращается к себе домой, она понимает, что всё в нем изменилось.

rating

Качество: WEB-DL 1080p
Формат: MKV
Видео кодек: AVC
Аудио кодек: AC3, E-AC3
Видео: H264, 1920x1280 (16:9), 23.976 fps, ~8600kbps, 0.175 bit/pixel
Аудио 1: Dolby AC3 48000Hz 5.1 640Kbps Русский
Аудио 2: Dolby E-AC3 48000Hz 5.1 640Kbps Оригинал (Английский)
General
Unique ID                   : 244834967281578850366013258108926954427 (0xB8317FDEB648E1E8918B9F1073340BBB)
Complete name               : Channel.Zero.S02E01.1080p.AMZN.WEB-DL.DD+5.1.H.264-GoodPeople.mkv
Format                      : Matroska
Format version              : Version 2
File size                   : 3.15 GiB
Duration                    : 44mn 20s
Overall bit rate mode       : Variable
Overall bit rate            : 10.2 Mbps
Encoded date                : UTC 2017-10-10 02:45:09
Writing application         : mkvmerge v5.4.0 ('Piper') built on Mar 10 2012 13:34:39
Writing library             : libebml v1.2.3 + libmatroska v1.3.0
DURATION                    : 00:43:51.429000000
NUMBER_OF_FRAMES            : 571
NUMBER_OF_BYTES             : 14621
_STATISTICS_WRITING_APP     : mkvmerge v8.8.0 ('Wind at my back') 64bit
_STATISTICS_WRITING_DATE_UT : 2017-09-22 02:05:27
_STATISTICS_TAGS            : BPS DURATION NUMBER_OF_FRAMES NUMBER_OF_BYTES

Video
ID                          : 1
Format                      : AVC
Format/Info                 : Advanced Video Codec
Format profile              : High@L4
Format settings, CABAC      : Yes
Format settings, ReFrames   : 4 frames
Codec ID                    : V_MPEG4/ISO/AVC
Duration                    : 44mn 20s
Bit rate mode               : Variable
Bit rate                    : 8 685 Kbps
Maximum bit rate            : 15.0 Mbps
Width                       : 1 920 pixels
Height                      : 1 080 pixels
Display aspect ratio        : 16:9
Frame rate mode             : Constant
Frame rate                  : 23.976 fps
Color space                 : YUV
Chroma subsampling          : 4:2:0
Bit depth                   : 8 bits
Scan type                   : Progressive
Bits/(Pixel*Frame)          : 0.175
Stream size                 : 2.69 GiB (85%)
Default                     : Yes
Forced                      : No
Color range                 : Limited
Color primaries             : BT.709
Transfer characteristics    : BT.709
Matrix coefficients         : BT.709

Audio #1
ID                          : 2
Format                      : AC-3
Format/Info                 : Audio Coding 3
Mode extension              : CM (complete main)
Format settings, Endianness : Big
Codec ID                    : A_AC3
Duration                    : 44mn 20s
Bit rate mode               : Constant
Bit rate                    : 640 Kbps
Channel(s)                  : 6 channels
Channel positions           : Front: L C R, Side: L R, LFE
Sampling rate               : 48.0 KHz
Compression mode            : Lossy
Stream size                 : 203 MiB (6%)
Language                    : Russian
Default                     : Yes
Forced                      : No

Audio #2
ID                          : 3
Format                      : E-AC-3
Format/Info                 : Audio Coding 3
Format settings, Endianness : Big
Codec ID                    : A_EAC3
Duration                    : 44mn 20s
Bit rate mode               : Constant
Bit rate                    : 640 Kbps
Channel(s)                  : 6 channels
Channel positions           : Front: L C R, Side: L R, LFE
Sampling rate               : 48.0 KHz
Compression mode            : Lossy
Stream size                 : 203 MiB (6%)
Language                    : English
Default                     : No
Forced                      : No

Text
ID                          : 4
Format                      : UTF-8
Codec ID                    : S_TEXT/UTF8
Codec ID/Info               : UTF-8 Plain Text
Language                    : English
Default                     : No
Forced                      : No
скриншот  скриншот  скриншот  
Внимание! Раздача ведётся путём добавления новых серий; при каждом добавлении создётся новый торрент. Чтобы начать докачку новой серии, пользователям необходимо сделать следующее:
Остановить скачивание.
Удалить старый торрент у себя из клиента (старые серии удалять не надо).
Скачать новый торрент и запустить его у себя в клиенте вместо старого, при этом указать клиенту путь в старую папку куда и должно происходить скачивание новых серий.

Ваш клиент при этом должен произвести хеширование (проверку) старой папки (если не производит сам - помогите ему сделать это), и будет докачивать только те серии которых у вас ещё нет. Старые серии при этом не удаляются, а продолжают раздаваться!
Eсли вы уже удалили старые серии, то предотвратить повторную закачку старых серий можно, отжав галочку в соответсвующих местах при запуске нового торрента. По возможности, желательно не удалять старые серии как можно дольше чтобы релизёр не столько продолжал раздавать старые серии, а смог сконцентрироваться на новых.
pb.wtf



Скачать Нулевой Канал: Бесконечный дом через торрент http://i93.fastpic.ru/big/2017/1010/57/ab95ec5cd6b2a9ee13f96a5ddff44c57.png Скачать фильм Нулевой Канал: Бесконечный дом через торрент бесплантно в хорошем качестве Описание: Основанный на крипипасте Брайана Рассела второй сезон «Нулевой Канал: Бесконечный дом» рассказывает историю девушки, которая ... 10 10 5
Info! Серебряная раздача, засчитывается только 50% скачанного.
Торрент: Зарегистрирован [2017-12-15 11:03] · скачан: 41 раз
Статус: √ проверено
Размер: 16.75 GB
Как cкачать? Как скачать Нулевой Канал: Бесконечный дом через торрент | qTorrent

28-11-2019 20:33  

Отключить всю рекламу на сайте

15-12-2017 11:04 Нулевой Канал: Бесконечный дом Скачать торрент  

+4-6pb.wtf



15-12-2017 21:04 Нулевой Канал: Бесконечный дом Скачать торрент  

А где же первый сезон !?pb.wtf



    Дорогой пользователь! Огромная просьба, поблагодарите релизера, оцените раздачу и оставьте свои комментарий, если Вы скачали Нулевой Канал: Бесконечный дом через торрент бесплатно! Внесите свою лепту в развитие PiratBit!
    Комментировать посты могут только пользователи прошедшие не сложную регистрацию
    Показать сообщения:    

    Нулевой Канал: Бесконечный дом через торрент
    Скачать бесплатно Нулевой Канал: Бесконечный дом
    Нулевой Канал: Бесконечный дом скачать торрент
    Нулевой Канал: Бесконечный дом смотреть онлайн
    Cкачать фильм Нулевой Канал: Бесконечный дом бесплатно
    Нулевой Канал: Бесконечный дом скачать торрент в хорошем качестве
    Нулевой Канал: Бесконечный дом смотреть онлайн бесплатно в хорошем качестве


    Вы не можете начинать темы
    Вы не можете отвечать на сообщения
    Вы не можете редактировать свои сообщения
    Вы не можете удалять свои сообщения
    Вы не можете голосовать в опросах
    Вы не можете прикреплять файлы к сообщениям
    Вы можете скачивать файлы