MEGA NEWS Получи личный уникальный адрес сайта и защити себя от блокировок. Внимание количество ограничено!!!

iTunes

1+1

iTunes

мы

iTunes

1

iTunes

Чернобыль

iTunes

Ральф против интернета

Лицензия

ПШазам

Лицензия

Игра престолов

Лицензия

30
pack

ВАЖНО

!!Акция!!

Alien_RageХит недели

RePack

Resident Evil 21

ИГРА 18+

pack

RePack

Metro:Exodus

!!Акция!!

Alien_Rage

RePack

fifa19

RePack

Assassins Creed: Odyssey

RePack

NEED FOR SPEED™ PAYBACK

3 сезон

9 сезон

Бесстыжие 9 сезон

Все сериалы

все сериалы на PB.wtf

RePack

FAR CRY 5
Ребята, катастрофически не хватает 1900р. для оплаты серверов за АВГУСТ (всвязи с блокировками трафик упал в 3 раза), 1-2р., выручайте.
  

Торговцы смертью / Finche ce guerra ce speranza (Альберто Сорди) [1974 г., Драма, комедия, DVDRip-AVC, Профессиональный (многоголосый)] от ExKinoRay pb.wtf

Торговцы смертью через торрент pb.wtf

Размер: 3.19 GB | Добавлен: 2 года назад | Торрент скачан:7 раз
Скачать  

11-10-2017 14:40 Торговцы смертью Скачать торрент  

Торговцы смертью / Finche ce guerra ce speranza
Год выпуска: 1974
Страна: Италия
Жанр: Драма, комедия
Продолжительность: 01:57:42
Перевод: Профессиональный (многоголосый)

Режиссер: Альберто Сорди

Премьера в мире: 20 декабря 1974

rating

В ролях: Альберто Сорди, Сильвия Монти, Алессандро Кутоло, Матильда Коста Джуффрида, Мауро Фирмани, Элиана Де Сантис, Фернандо Давидди, Эдоардо Файета, Серджо Пуппо, Энрико Марчани

Описание: Для того, чтобы удовлетворять высокие запросы своей красивой жены жить в роскоши, Петро меняет работу продавца оборудования для ванны на торговца оружием. Его доходы стремительно растут, но начинаются и проблемы: он получает все меньше удовлетворения от общения со своей семьей и продает оружие мелким африканским диктаторам.

Доп. информация: Перевод: Профессиональный многоголосый (5 канал Петербург)

Качество: DVDRip-AVC
Формат: MKV
Видео кодек: MPEG4
Аудио кодек: AC3
Видео: MPEG-4 AVC, 3500 Кбит/с, 720x548@1024x548, 25 кадров/сек
Аудио#1: Русский (AC3, 2 ch, 192 Кбит/с, 48 КГц)
Аудио#2: Итальянский (AC3, 1 ch, 192 Кбит/с, 48 КГц)
Релиз от:




raw [info]: 720x548p 64:45 @ 25/1 fps (cfr)
x264 [info]: using SAR=64/45
x264 [info]: using cpu capabilities: MMX2 SSE2Fast LZCNT
x264 [info]: profile High, level 4.1
x264 [info]: frame I:990 Avg QP:18.73 size: 64845
x264 [info]: frame P:39114 Avg QP:21.19 size: 31166
x264 [info]: frame B:136461 Avg QP:23.13 size: 13236
x264 [info]: consecutive B-frames: 1.9% 2.9% 12.4% 19.9% 5.7% 42.2% 13.8% 0.4% 0.2% 0.2% 0.1% 0.1% 0.1% 0.0% 0.0% 0.0% 0.2%
-----
Общее
Уникальный идентификатор : 231788995699762060840821817924846451993 (0xAE60EFCF7CDC4772A8C1803748257D19)
Полное имя : D:\Relizes\Torgovtsi.smertiu.1974.DVDRip-AVC.ExKinoRay.mkv
Формат : Matroska
Версия формата : Version 2
Размер файла : 3,19 Гбайт
Продолжительность : 1 ч. 57 м.
Общий поток : 3886 Кбит/сек
Дата кодирования : UTC 2017-10-11 01:48:51
Программа кодирования : mkvmerge v7.8.0 ('River Man') 32bit built on Apr 3 2015 12:11:22
Библиотека кодирования : libebml v1.3.1 + libmatroska v1.4.2

Видео
Идентификатор : 1
Формат : AVC
Формат/Информация : Advanced Video Codec
Профиль формата : High@L4.1
Параметр CABAC формата : Да
Параметр ReFrames формата : 14 кадров
Идентификатор кодека : V_MPEG4/ISO/AVC
Продолжительность : 1 ч. 57 м.
Битрейт : 3500 Кбит/сек
Ширина : 720 пикселей
Высота : 548 пикселей
Соотношение сторон : 1,85:1
Режим частоты кадров : Постоянный
Частота кадров : 25,000 кадров/сек
Цветовое пространство : YUV
Субдискретизация насыщенности : 4:2:0
Битовая глубина : 8 бит
Тип развёртки : Прогрессивная
Бит/(Пиксели*Кадры) : 0.355
Размер потока : 2,82 Гбайт (88%)
Библиотека кодирования : x264 core 148 r2638 7599210
Настройки программы : cabac=1 / ref=14 / deblock=1:-2:-2 / analyse=0x3:0x133 / me=umh / subme=10 / psy=1 / psy_rd=1.05:0.15 / mixed_ref=1 / me_range=32 / chroma_me=1 / trellis=2 / 8x8dct=1 / cqm=0 / deadzone=21,11 / fast_pskip=0 / chroma_qp_offset=-3 / threads=4 / lookahead_threads=1 / sliced_threads=0 / nr=0 / decimate=0 / interlaced=0 / bluray_compat=0 / constrained_intra=0 / bframes=16 / b_pyramid=2 / b_adapt=2 / b_bias=0 / direct=3 / weightb=1 / open_gop=0 / weightp=2 / keyint=250 / keyint_min=25 / scenecut=40 / intra_refresh=0 / rc=2pass / mbtree=0 / bitrate=3500 / ratetol=1.0 / qcomp=0.60 / qpmin=0 / qpmax=69 / qpstep=4 / cplxblur=20.0 / qblur=0.5 / ip_ratio=1.40 / pb_ratio=1.30 / aq=1:1.00
Язык : English
Default : Да
Forced : Нет
Цветовой диапазон : Limited
Основные цвета : BT.601 NTSC
Характеристики трансфера : BT.601
Коэффициенты матрицы : BT.601

Аудио #1
Идентификатор : 2
Формат : AC-3
Формат/Информация : Audio Coding 3
Расширение режима : CM (complete main)
Параметр Endianness формата : Big
Идентификатор кодека : A_AC3
Продолжительность : 1 ч. 57 м.
Вид битрейта : Постоянный
Битрейт : 192 Кбит/сек
Каналы : 2 канала
Расположение каналов : Front: L R
Частота : 48,0 КГц
Частота кадров : 31,250 кадров/сек (1536 spf)
Метод сжатия : С потерями
Размер потока : 162 Мбайт (5%)
Язык : Russian
Default : Да
Forced : Нет

Аудио #2
Идентификатор : 3
Формат : AC-3
Формат/Информация : Audio Coding 3
Расширение режима : CM (complete main)
Параметр Endianness формата : Big
Идентификатор кодека : A_AC3
Продолжительность : 1 ч. 57 м.
Вид битрейта : Постоянный
Битрейт : 192 Кбит/сек
Каналы : 1 канал
Расположение каналов : Front: C
Частота : 48,0 КГц
Частота кадров : 31,250 кадров/сек (1536 spf)
Метод сжатия : С потерями
Размер потока : 162 Мбайт (5%)
Язык : Italian
Default : Нет
Forced : Нет

pb.wtf



Скачать Торговцы смертью через торрент http://s001.radikal.ru/i193/1710/ab/c331f6a12e15.jpg Скачать фильм Торговцы смертью через торрент бесплантно в хорошем качестве Описание: Для того, чтобы удовлетворять высокие запросы своей красивой жены жить в роскоши, Петро меняет работу продавца оборудования для ... 10 10 1
Info! Золотая раздача, скачанное не засчитывается.
Торрент: Зарегистрирован [2017-10-11 14:40] · скачан: 7 раз
Статус: √ проверено
Размер: 3.19 GB
Как cкачать? Как скачать Торговцы смертью через торрент | qTorrent


>> Регистрируемся здесь <<






Отзывы и комментарии о схеме читаем и пишем здесь: ---> Отзывы и комментарии о схеме

Новые благодарочки в телеграм довольных пользователей:
скриншот   скриншот   скриншот   скриншот   скриншот
    Дорогой пользователь! Огромная просьба, поблагодарите релизера, оцените раздачу и оставьте свои комментарий, если Вы скачали Торговцы смертью через торрент бесплатно! Внесите свою лепту в развитие PiratBit!
    Комментировать посты могут только пользователи прошедшие не сложную регистрацию
    Показать сообщения:    

    Торговцы смертью через торрент
    Скачать бесплатно Торговцы смертью
    Торговцы смертью скачать торрент
    Торговцы смертью смотреть онлайн
    Cкачать фильм Торговцы смертью бесплатно
    Торговцы смертью скачать торрент в хорошем качестве
    Торговцы смертью смотреть онлайн бесплатно в хорошем качестве


    Вы не можете начинать темы
    Вы не можете отвечать на сообщения
    Вы не можете редактировать свои сообщения
    Вы не можете удалять свои сообщения
    Вы не можете голосовать в опросах
    Вы не можете прикреплять файлы к сообщениям
    Вы можете скачивать файлы