Всегда рабочее зеркало без VPN и Proxy просто перед .vidak.icu напиши любое слово или цифру, Пример http://op62.vidak.icu

MVO

MVO

1 сезон

1

1 сезон

iTunes

1 сезон

13

1 сезон

Deluxe

pack

Рекомендуем

Repack

30

ВАЖНО

RePack

MK11

RePack

jed

RePack

fifa19

RePack

RDR2

RePack

NEED FOR SPEED™ PAYBACK

Кинопоиск HD

6 сезон

 Острые козырьки 6 сезон

Все сериалы

все сериалы на PB.wtf

RePack

FAR CRY 5
  
Magnet ссылка

Капитан Подштанник: Первый эпический фильм / Captain Underpants: The First Epic Movie (Дэвид Сорен) [2017, мультфильм, боевик, комедия, BDRip] MVO [Лицензия] pb.wtf

Капитан Подштанник: Первый эпический фильм через торрент pb.wtf

Размер: 1.46 GB | Добавлен: 4 года 9 мес. назад | Торрент скачан:696 раз
Смотреть онлайн Капитан Подштанник: Первый эпический фильм | Скачать    Ребята, помогите собрать деньги на оплату серверов!!!

11-10-2017 17:30 Капитан Подштанник: Первый эпический фильм Скачать торрент  

Капитан Подштанник: Первый эпический фильм / Captain Underpants: The First Epic Movie
««50% Hero. 100% Cotton»»

Год выпуска: 2017
Страна: США
Жанр: мультфильм, боевик, комедия, семейный

Продолжительность: 01:28:40
Перевод: Профессиональный многоголосый [Лицензия]
Режиссер: Дэвид Сорен
В ролях:

Эд Хелмс (Captain Underpants / Mr. Krupp, озвучка), Кевин Харт (George, озвучка), Ник Кролл (Professor Poopypants, озвучка), Томас Миддлдитч (Harold, озвучка), Джордан Пил (Melvin, озвучка), Кристен Шаал (Edith, озвучка), Ди Ди Решер (Ms. Ribble, озвучка), Брайан Посен (Mr. Rected, озвучка), Дэвид Сорен (Tommy, озвучка), Мэл Родригез (Mr. Fyde, озвучка), Сьюзэн Фитцер (Ms. Dayken, озвучка), Линнанн Загер (George's Mom, озвучка)
Описание:
Двое учеников начальной школы загипнотизировали директора школы так, что он стал супергероем, помогающим их одноклассникам.
Рейтинг:

MPAA: PG - Рекомендуется присутствие родителей
Качество: BDRip
Формат: AVI
Видео: XviD, 720x384 (1.85:1), 1812 kbps, 23,976 fps, 0,273 bpp
Аудио: русский / AC3 / 5.1 / 48 kHz / 448 kbps /
General
Complete name : E:\Captain.Underpants.The.First.Epic.Movie.2017.BDRip.1.46Gb.P.MegaPeer.avi
Format : AVI
Format/Info : Audio Video Interleave
File size : 1.46 GiB
Duration : 1 h 28 min
Overall bit rate : 2 363 kb/s
Writing application : VirtualDubMod 1.5.10.2 (build 2540/release)
Writing library : VirtualDubMod build 2540/release

Video
ID : 0
Format : MPEG-4 Visual
Format profile : Advanced [email protected]
Format settings, BVOP : 1
Format settings, QPel : No
Format settings, GMC : No warppoints
Format settings, Matrix : Custom
Codec ID : XVID
Codec ID/Hint : XviD
Duration : 1 h 28 min
Bit rate : 1 813 kb/s
Width : 720 pixels
Height : 384 pixels
Display aspect ratio : 1.85:1
Frame rate : 23.976 (24000/1001) FPS
Color space : YUV
Chroma subsampling : 4:2:0
Bit depth : 8 bits
Scan type : Progressive
Compression mode : Lossy
Bits/(Pixel*Frame) : 0.273
Stream size : 1.12 GiB (77%)
Writing library : XviD 73

Audio
ID : 1
Format : AC-3
Format/Info : Audio Coding 3
Mode extension : CM (complete main)
Format settings, Endianness : Big
Codec ID : 2000
Duration : 1 h 28 min
Bit rate mode : Constant
Bit rate : 448 kb/s
Channel(s) : 6 channels
Channel positions : Front: L C R, Side: L R, LFE
Sampling rate : 48.0 kHz
Frame rate : 31.250 FPS (1536 spf)
Compression mode : Lossy
Stream size : 284 MiB (19%)
Alignment : Split accross interleaves
pb.wtf



Скачать Капитан Подштанник: Первый эпический фильм через торрент http://i6.imageban.ru/out/2017/10/11/6b6dec986f0c27a32180cec99eadb161.jpg Скачать, смотреть онлайн Капитан Подштанник: Первый эпический фильм бесплантно в хорошем качестве Описание: Двое учеников начальной школы загипнотизировали директора школы так, что он стал супергероем, помогающим их ... 10 10 12
Торрент: Зарегистрирован [2017-10-11 17:30] · скачан: 696 раз
Статус: √ проверено
Размер: 1.46 GB
Как cкачать? Как скачать Капитан Подштанник: Первый эпический фильм через торрент | UTorrent

% Раздел Тема Автор DL S | L
Ultra HD (UHD: 2K, 4K, 8K) [ 24.04 GB ] Капитан Подштанник: Первый эпический фильм / Captain Underpants: The First Epic Movie [2017 мультфильм UHD BDRemux 2160p] MVO +DUB [ BD EUR] bober100 Скачать
1 | 0
Иностранные мультфильмы [ 1.46 GB ] Капитан Подштанник: Первый эпический фильм / Captain Underpants: The First Epic Movie [2017 мультфильм BDRip] MVO [] Twi7ter Скачать
1 | 0
Фильмы с украинским озвучиванием [ 1.46 GB ] Капитан Подштанник: Первый эпический фильм / Captain Underpants: The First Epic Movie [2017 Мультфильм BDRip] [Ukr DUB] killermax2013 Скачать
1 | 0
Зарубежные Мультфильмы (BDRip 1080p, 720p, Blu-ray, BD-Remux) [ 8.03 GB ] Капитан Подштанник: Первый эпический фильм / Captain Underpants: The First Epic Movie [2017 Мультфильм BDRip 1080p] MVO [ Blu-ray CEE] bober100 Скачать
1 | 0
Зарубежные Мультфильмы (BDRip 1080p, 720p, Blu-ray, BD-Remux) [ 35.37 GB ] Капитан Подштанник: Первый эпический фильм / Captain Underpants: The First Epic Movie [2017 Мультфильм Blu-ray 1080p] MVO [ CEE] bober100 Скачать
1 | 0

28-11-2019 20:33  

Отключить вcю реклaмy на сайте

    Дорогой пользователь! Огромная просьба, поблагодарите релизера, оцените раздачу и оставьте свои комментарий, если Вы скачали Капитан Подштанник: Первый эпический фильм через торрент бесплатно!
    Комментировать посты могут только пользователи прошедшие не сложную регистрацию
    Показать сообщения:    

    Капитан Подштанник: Первый эпический фильм через торрент
    Скачать бесплатно Капитан Подштанник: Первый эпический фильм
    Капитан Подштанник: Первый эпический фильм скачать торрент
    Капитан Подштанник: Первый эпический фильм смотреть онлайн
    Cкачать фильм Капитан Подштанник: Первый эпический фильм бесплатно
    Капитан Подштанник: Первый эпический фильм скачать торрент в хорошем качестве
    Капитан Подштанник: Первый эпический фильм смотреть онлайн бесплатно в хорошем качестве


    Вы не можете начинать темы
    Вы не можете отвечать на сообщения
    Вы не можете редактировать свои сообщения
    Вы не можете удалять свои сообщения
    Вы не можете голосовать в опросах
    Вы не можете прикреплять файлы к сообщениям
    Вы можете скачивать файлы