Ссылка на приватное зеркало нашего сайта всего за 1$. Внимание количество ограничено!!!

2 сезон

iTunes

1 сезон

1

2 сезон

2 сезон

iTunes

1 сезон

RePack

30

Новинка

ВАЖНО

ИГРА 18+

pack

RePack

MK11
pack

Забери бонус

RePack

jed

!!Акция!!

Alien_Rage

RePack

fifa19

RePack

Assassins Creed: Odyssey

RePack

NEED FOR SPEED™ PAYBACK

4 сезон

9 сезон

Бесстыжие 9 сезон

Все сериалы

все сериалы на PB.wtf

RePack

FAR CRY 5
  

Флэш / The Flash / Сезон: 4 / Серии 1-23 из 23 (Дэвид Наттер / David Nutter) [2017, США, фантастика, боевик, драма, WEBRip 720p] MVO [BaibaKo] pb.wtf

Флэш через торрент pb.wtf

Размер: 37.24 GB | Добавлен: 2 года 5 мес. назад | Торрент скачан:2 раза
Скачать  

11-10-2017 23:41 Флэш Скачать торрент  


Флэш / The Flash

«Discover what makes a hero»


  • Год выпуска: 2017
  • Страна: США
  • Жанр: фантастика, боевик, драма, приключения
  • Продолжительность: ~ 00:42:00 (Серия)
  • Перевод: Профессиональный многоголосый [BaibaKo]
  • Режиссер: Дэвид Наттер / David Nutter
  • В ролях:

    Грант Гастин (Barry Allen), Кэндис Паттон (Iris West), Даниэль Панабэйкер (Caitlin Snow), Карлос Валдес (Cisco Ramon), Томас Кэвэна (Dr. Harrison Wells), Джесси Л. Мартин (Joe West), Кейнан Лонсдейл (Wally West), Рик Коснетт (Eddie Thawne), Патрик Сабонгуй (Captain David Singh), Тедди Сирс (Jay Garrick), Джон Уэсли Шипп (Henry Allen), Вайолетт Бин (Jesse Wells)


  • Из-за несчастного случая судмедэксперт Барри Аллен приобретает способность передвигаться с невероятной скоростью. Этот случай делает из него супергероя, которым он всегда мечтал стать. Защищая город, как ангел-хранитель, делая невозможное, спасая жизни со скоростью вспышки, по подсказке Оливера Куина (Стрела), он берёт себе и соответствующее имя - Флэш.
    Сериал основан на супергерое "DC Comics" по имени Флэш (Барри Аллен), борце с преступностью в костюме, который был создан Робертом Кнайгером, Джоном Брумом и Кармином Инфантино. Является спин-оффом сериала «Стрела» и происходит в той же вселенной.
  • Рейтинг:

    rating
  • Качество: WEBRip 720p
  • Формат: MKV
  • Видео кодек: AVC
  • Аудио кодек: AC3
  • Видео: 4345 Кбит/сек, 1280*720 (16:9), в 23,976 (24000/1001) кадра/сек, AVC
  • Аудио №1: русский 640 Кбит/сек, 48,0 КГц, 16 бит, 6 каналов, AC-3 |[BaibaKo]|
  • Аудио №2: английский 640 Кбит/сек, 48,0 КГц, 16 бит, 6 каналов, AC-3
  • Релиз от: GEKADOL

    Внимание! Раздача ведётся путём добавления новых серий; при каждом добавлении создаётся новый торрент. Чтобы начать докачку новой серии, пользователям необходимо сделать следующее:
    (1) остановить скачивание,
    (2) удалить старый торрент у себя из клиента (старые серии удалять не надо),
    (3) скачать новый торрент и запустить его у себя в клиенте вместо старого, при этом указать клиенту путь в старую папку куда и должно происходить скачивание новых серий.
    Ваш клиент при этом должен произвести хеширование (проверку) старой папки (если не производит сам - помогите ему сделать это), и будет докачивать только те серии которых у вас ещё нет. Старые серии при этом не удаляются, а продолжают раздаваться!
    Eсли вы уже удалили старые серии, то предотвратить повторную закачку старых серий можно, отжав галочку в соответствующих местах при запуске нового торрента. По возможности, желательно не удалять старые серии как можно дольше чтобы релизёр не столько продолжал раздавать старые серии, а смог сконцентрироваться на новых.
    Общее
    Уникальный идентификатор : 181698688668393171926321912315454916951 (0x88B1E50053A35513B773E768551B8957)
    Полное имя : G:\Флэш (The Flash 4)\The.Flash.s04e01.HD720p.WEBRip.Rus.Eng.BaibaKo.tv.mkv
    Формат : Matroska
    Версия формата : Version 4 / Version 2
    Размер файла : 1,65 Гбайт
    Продолжительность : 41 м. 52 с.
    Общий поток : 5627 Кбит/сек
    Дата кодирования : UTC 2017-10-19 05:58:11
    Программа кодирования : mkvmerge v14.0.0 ('Flow') 64bit
    Библиотека кодирования : libebml v1.3.4 + libmatroska v1.4.5
    Writing frontend : StaxRip v1.6.0.0

    Видео
    Идентификатор : 1
    Формат : AVC
    Формат/Информация : Advanced Video Codec
    Профиль формата : High@L3.1
    Параметр CABAC формата : Да
    Параметр RefFrames формата : 3 кадра
    Идентификатор кодека : V_MPEG4/ISO/AVC
    Продолжительность : 41 м. 52 с.
    Битрейт : 4345 Кбит/сек
    Ширина : 1280 пикселей
    Высота : 720 пикселей
    Соотношение сторон : 16:9
    Режим частоты кадров : Постоянный
    Частота кадров : 23,976 (24000/1001) кадра/сек
    Цветовое пространство : YUV
    Субдискретизация насыщенности : 4:2:0
    Битовая глубина : 8 бит
    Тип развёртки : Прогрессивная
    Бит/(Пиксели*Кадры) : 0.197
    Размер потока : 1,27 Гбайт (77%)
    Default : Да
    Forced : Нет

    Аудио #1
    Идентификатор : 2
    Формат : AC-3
    Формат/Информация : Audio Coding 3
    Параметр Endianness формата : Big
    Идентификатор кодека : A_AC3
    Продолжительность : 41 м. 52 с.
    Вид битрейта : Постоянный
    Битрейт : 640 Кбит/сек
    Каналы : 6 каналов
    Расположение каналов : Front: L C R, Side: L R, LFE
    Частота : 48,0 КГц
    Частота кадров : 31,250 кадров/сек (1536 SPF)
    Битовая глубина : 16 бит
    Метод сжатия : С потерями
    Задержка видео : 24 мс.
    Размер потока : 192 Мбайт (11%)
    Язык : Russian
    ServiceKind/String : Complete Main
    Default : Нет
    Forced : Нет

    Аудио #2
    Идентификатор : 3
    Формат : AC-3
    Формат/Информация : Audio Coding 3
    Параметр Endianness формата : Big
    Идентификатор кодека : A_AC3
    Продолжительность : 41 м. 52 с.
    Вид битрейта : Постоянный
    Битрейт : 640 Кбит/сек
    Каналы : 6 каналов
    Расположение каналов : Front: L C R, Side: L R, LFE
    Частота : 48,0 КГц
    Частота кадров : 31,250 кадров/сек (1536 SPF)
    Битовая глубина : 16 бит
    Метод сжатия : С потерями
    Задержка видео : 24 мс.
    Размер потока : 192 Мбайт (11%)
    Язык : English
    ServiceKind/String : Complete Main
    Default : Нет
    Forced : Нет





    Скриншоты:
    скриншот   скриншот   скриншот   скриншот   скриншот   скриншот   скриншот  
    скриншот  

    Раздача ведётся путём добавления новых серий. Добавлена 21-23 серия (03.06.2018).Просьба перекачать торрент файл.

    pb.wtf



  • Скачать Флэш через торрент http://pic1.kartinco.top/images/11/f9ufq.jpg Скачать фильм Флэш через торрент бесплантно в хорошем качестве qw.png Из-за несчастного случая судмедэксперт Барри Аллен приобретает способность передвигаться с невероятной скоростью. Этот случай ... 9.2 10 17
    Info! Золотая раздача, скачанное не засчитывается.
    Торрент: Зарегистрирован [2018-06-03 02:45] · скачан: 2 раз
    Статус: √ проверено
    Размер: 37.24 GB
    Как cкачать? Как скачать Флэш через торрент | qTorrent

    % Раздел Тема Автор DL S | L
    Зарубежные сериалы [ 28.19 GB ] Флэш / The Flash / Сезон: 4 / Серии: 1-23 из 23 [2017 WEBRip 720p] MVO [Profix Media] bober100 Скачать
    1 | 0
    Зарубежные сериалы [ 11.4 GB ] Флэш / The Flash / Сезон: 4 / Серии 1-23 из 23 [2017 WEBRip] MVO [BaibaKo] GEKADOL Скачать
    1 | 0
    Зарубежные сериалы [ 40.9 GB ] Флэш / The Flash / Сезон: 4 / Серии: 1-23 из 23 [2017 WEB-DL 1080p] MVO [LostFilm] bober100 Скачать
    1 | 0
    Зарубежные сериалы [ 11.55 GB ] Флэш / The Flash / Сезон: 4 / Серии: 1-23 из 23 [2017 WEBRip] MVO [Profix Media] bober100 Скачать
    1 | 0
    Зарубежные сериалы [ 43.38 GB ] Флэш / The Flash / Сезон: 4 / Серии: 1-23 из 23 [2017 WEBRip 1080p] MVO [Profix Media] bober100 Скачать
    1 | 0
    Зарубежные сериалы [ 19.54 GB ] Флэш / The Flash / Сезон: 4 / Серии: 1-23 из 23 [2017 HDTVRip 720p] DVO [Sunshine Studio] bober100 Скачать
    1 | 0
    Зарубежные сериалы [ 11.58 GB ] Флэш / The Flash / Сезон: 4 / Серии: 1-23 из 23 [2017 HDTVRip] DVO [Sunshine Studio] bober100 Скачать
    1 | 0


    Последний раз редактировалось: GEKADOL (2018-06-03 02:45), всего редактировалось 22 раз(а)

    28-11-2019 20:33  

    Отключить всю рекламу на сайте

    30-11-2017 01:47 Флэш Скачать торрент  

    Заменена 2 серия на PROPER!!!!!! pb.wtf



    30-11-2017 04:26 Флэш Скачать торрент  

    Del....был неправ, скрины в норме)pb.wtf



      Дорогой пользователь! Огромная просьба, поблагодарите релизера, оцените раздачу и оставьте свои комментарий, если Вы скачали Флэш через торрент бесплатно! Внесите свою лепту в развитие PiratBit!
      Комментировать посты могут только пользователи прошедшие не сложную регистрацию
      Показать сообщения:    

      Флэш через торрент
      Скачать бесплатно Флэш
      Флэш скачать торрент
      Флэш смотреть онлайн
      Cкачать фильм Флэш бесплатно
      Флэш скачать торрент в хорошем качестве
      Флэш смотреть онлайн бесплатно в хорошем качестве


      Вы не можете начинать темы
      Вы не можете отвечать на сообщения
      Вы не можете редактировать свои сообщения
      Вы не можете удалять свои сообщения
      Вы не можете голосовать в опросах
      Вы не можете прикреплять файлы к сообщениям
      Вы можете скачивать файлы