Ссылка на приватное зеркало нашего сайта всего за 1$. Внимание количество ограничено!!!

2 сезон

iTunes

1 сезон

1

iTunes

iTunes

iTunes

1 сезон

RePack

30

ИГРА 18+

pack

ВАЖНО

!!Акция!!

Alien_RageХит недели

RePack

MK11
pack

Забери бонус

RePack

jed

!!Акция!!

Alien_Rage

RePack

fifa19

RePack

Assassins Creed: Odyssey

RePack

NEED FOR SPEED™ PAYBACK

4 сезон

9 сезон

Бесстыжие 9 сезон

Все сериалы

все сериалы на PB.wtf

RePack

FAR CRY 5
  

Гаттака / Gattaca (Эндрю Никкол) [1997, фантастика, драма, мелодрама, детектив, BDRip 1080p by msltel] DUB, MVO, 3 x AVO pb.wtf

Гаттака через торрент pb.wtf

Размер: 14.06 GB | Добавлен: 3 года назад | Торрент скачан:37 раз
Скачать  

12-10-2017 06:02 Гаттака Скачать торрент  

Название: Гаттака
Оригинальное название: Gattaca
Год выпуска: 1997
Страна: США
Жанр: фантастика, драма, мелодрама, детектив
Продолжительность: 01:46:29
Перевод: дублированный, профессиональный многоголосый, авторский

Режиссер: Эндрю Никкол
В ролях: Итэн Хоук, Ума Турман, Джуд Лоу, Гор Видал, Ксандер Беркли, Джейн Брук, Элиас Котеас, Майя Рудольф, Уна Дэймон, Элизабет Деннехи, Блэр Андервуд, Мейсон Гэмбл, Винсент Нилсон, Чад Крист, Уильям Ли Скотт, Кларенс Грэхэм, Эрнест Боргнайн, Тони Шэлоуб, Алан Аркин, Карлтон Бембри, Синтия Мартеллс

О фильме: Добро пожаловать в Гаттаку — совершенный мир будущего. Здесь каждый генетически запрограммирован, и печальная судьба ожидает тех, кто был рождён в любви, а не в лаборатории. Такова судьба Винсента Фримана, молодого человека, получившего при рождении ярлык «не пригоден». Винсент обладает весомыми недостатками: он подвержен страстям, он поддается эмоциям, и он верит в то, что его мечты сбудутся. Вот почему он покупает личность другого человека, пытаясь обмануть власти и стать уважаемым членом Корпорации Будущего Гаттака. И когда он уже на пути к свободе, убийство грозит раскрытием его реальной личности. Несмотря на свою невиновность, Винсенту есть что скрывать и есть что терять. Но так трудно остаться в живых, когда в тебе живут два человека…



Качество: BDRip 1080p
Формат: MKV
Видео: MPEG-4 AVC, 12.9 Mбит/с, 1920x800, 23.976 кадр/с
Аудио 1: русский, AC3, 640 kbps, 6 ch [дублированный]
Аудио 2: русский, AC3, 192 kbps, 2 ch [профессиональный многоголосый]
Аудио 3: русский, DTS, 1509 kbps, 6 ch [авторский, Юрий Живов]
Аудио 4: русский, DTS, 1509 kbps, 6 ch [авторский, А. Попов]
Аудио 5: русский, DTS, 1509 kbps, 6 ch [авторский, Юрий Сербин]
Аудио 6: английский, AC3, 640 kbps, 6 ch, 48 kHz [оригинал]
Субтитры 1: русские
Субтитры 2: английские
Имеются неименованные главы/чаптеры.
Общее
Уникальный идентификатор : 239338462059360518189799276781207091468 (0xB40EE93D5981682D89DAE719D9A4F90C)
Полное имя : D:\Video\Гаттака.1997.BDRip.1080p by msltel.mkv
Формат : Matroska
Версия формата : Version 4 / Version 2
Размер файла : 14,1 Гбайт
Продолжительность : 1 ч. 46 м.
Общий поток : 18,9 Мбит/сек
Название фильма : Rip by msltel
Дата кодирования : UTC 2017-10-11 09:08:42
Программа кодирования : mkvmerge v8.2.0 ('World of Adventure') 64bit
Библиотека кодирования : libebml v1.3.1 + libmatroska v1.4.2

Видео
Идентификатор : 1
Формат : AVC
Формат/Информация : Advanced Video Codec
Профиль формата : High@L4.1
Параметр CABAC формата : Да
Параметр RefFrames формата : 4 кадра
Идентификатор кодека : V_MPEG4/ISO/AVC
Продолжительность : 1 ч. 46 м.
Битрейт : 12,9 Мбит/сек
Ширина : 1920 пикселей
Высота : 800 пикселей
Соотношение сторон : 2,40:1
Режим частоты кадров : Постоянный
Частота кадров : 23,976 (24000/1001) кадра/сек
Цветовое пространство : YUV
Субдискретизация насыщенности : 4:2:0
Битовая глубина : 8 бит
Тип развёртки : Прогрессивная
Бит/(Пиксели*Кадры) : 0.351
Размер потока : 9,60 Гбайт (68%)
Библиотека кодирования : x264 core 146 r2538 121396c
Настройки программы : cabac=1 / ref=4 / deblock=1:-3:-2 / analyse=0x3:0x113 / me=umh / subme=11 / psy=1 / psy_rd=1.00:0.15 / mixed_ref=1 / me_range=32 / chroma_me=1 / trellis=2 / 8x8dct=1 / cqm=0 / deadzone=21,11 / fast_pskip=0 / chroma_qp_offset=-3 / threads=6 / lookahead_threads=1 / sliced_threads=0 / nr=0 / decimate=1 / interlaced=0 / bluray_compat=0 / constrained_intra=0 / bframes=9 / b_pyramid=2 / b_adapt=2 / b_bias=0 / direct=1 / weightb=1 / open_gop=0 / weightp=2 / keyint=230 / keyint_min=23 / scenecut=40 / intra_refresh=0 / rc_lookahead=40 / rc=crf / mbtree=0 / crf=18.3 / qcomp=0.60 / qpmin=0 / qpmax=69 / qpstep=4 / vbv_maxrate=62500 / vbv_bufsize=78125 / crf_max=0.0 / nal_hrd=none / filler=0 / ip_ratio=1.40 / pb_ratio=1.30 / aq=1:1.00
Язык : English
Default : Да
Forced : Нет

Аудио #1
Идентификатор : 2
Формат : AC-3
Формат/Информация : Audio Coding 3
Параметр Endianness формата : Big
Идентификатор кодека : A_AC3
Продолжительность : 1 ч. 46 м.
Вид битрейта : Постоянный
Битрейт : 640 Кбит/сек
Каналы : 6 каналов
Расположение каналов : Front: L C R, Side: L R, LFE
Частота : 48,0 КГц
Частота кадров : 31,250 кадров/сек (1536 SPF)
Битовая глубина : 16 бит
Метод сжатия : С потерями
Размер потока : 487 Мбайт (3%)
Заголовок : DUB
Язык : Russian
ServiceKind/String : Complete Main
Default : Да
Forced : Нет

Аудио #2
Идентификатор : 3
Формат : AC-3
Формат/Информация : Audio Coding 3
Параметр Endianness формата : Big
Идентификатор кодека : A_AC3
Продолжительность : 1 ч. 46 м.
Вид битрейта : Постоянный
Битрейт : 192 Кбит/сек
Каналы : 2 канала
Расположение каналов : Front: L R
Частота : 48,0 КГц
Частота кадров : 31,250 кадров/сек (1536 SPF)
Битовая глубина : 16 бит
Метод сжатия : С потерями
Размер потока : 146 Мбайт (1%)
Заголовок : MVO
Язык : Russian
ServiceKind/String : Complete Main
Default : Нет
Forced : Нет

Аудио #3
Идентификатор : 4
Формат : DTS
Формат/Информация : Digital Theater Systems
Режим : 16
Параметр Endianness формата : Big
Идентификатор кодека : A_DTS
Продолжительность : 1 ч. 46 м.
Вид битрейта : Постоянный
Битрейт : 1509 Кбит/сек
Каналы : 6 каналов
Расположение каналов : Front: L C R, Side: L R, LFE
Частота : 48,0 КГц
Частота кадров : 93,750 кадра/сек (512 SPF)
Битовая глубина : 24 бит
Метод сжатия : С потерями
Размер потока : 1,12 Гбайт (8%)
Заголовок : Юрий Живов
Язык : Russian
Default : Нет
Forced : Нет

Аудио #4
Идентификатор : 5
Формат : DTS
Формат/Информация : Digital Theater Systems
Режим : 16
Параметр Endianness формата : Big
Идентификатор кодека : A_DTS
Продолжительность : 1 ч. 46 м.
Вид битрейта : Постоянный
Битрейт : 1509 Кбит/сек
Каналы : 6 каналов
Расположение каналов : Front: L C R, Side: L R, LFE
Частота : 48,0 КГц
Частота кадров : 93,750 кадра/сек (512 SPF)
Битовая глубина : 24 бит
Метод сжатия : С потерями
Размер потока : 1,12 Гбайт (8%)
Заголовок : А. Попов
Язык : Russian
Default : Нет
Forced : Нет

Аудио #5
Идентификатор : 6
Формат : DTS
Формат/Информация : Digital Theater Systems
Режим : 16
Параметр Endianness формата : Big
Идентификатор кодека : A_DTS
Продолжительность : 1 ч. 46 м.
Вид битрейта : Постоянный
Битрейт : 1509 Кбит/сек
Каналы : 6 каналов
Расположение каналов : Front: L C R, Side: L R, LFE
Частота : 48,0 КГц
Частота кадров : 93,750 кадра/сек (512 SPF)
Битовая глубина : 24 бит
Метод сжатия : С потерями
Размер потока : 1,12 Гбайт (8%)
Заголовок : Юрий Сербин
Язык : Russian
Default : Нет
Forced : Нет

Аудио #6
Идентификатор : 7
Формат : AC-3
Формат/Информация : Audio Coding 3
Параметр Endianness формата : Big
Идентификатор кодека : A_AC3
Продолжительность : 1 ч. 46 м.
Вид битрейта : Постоянный
Битрейт : 640 Кбит/сек
Каналы : 6 каналов
Расположение каналов : Front: L C R, Side: L R, LFE
Частота : 48,0 КГц
Частота кадров : 31,250 кадров/сек (1536 SPF)
Битовая глубина : 16 бит
Метод сжатия : С потерями
Размер потока : 487 Мбайт (3%)
Заголовок : original
Язык : English
ServiceKind/String : Complete Main
Default : Нет
Forced : Нет

Текст #1
Идентификатор : 8
Формат : UTF-8
Идентификатор кодека : S_TEXT/UTF8
Идентификатор кодека/Информация : UTF-8 Plain Text
Продолжительность : 1 ч. 42 м.
Битрейт : 62 бит/сек
ElementCount : 590
Размер потока : 46,5 Кбайт (0%)
Заголовок : русские
Язык : Russian
Default : Нет
Forced : Нет

Текст #2
Идентификатор : 9
Формат : UTF-8
Идентификатор кодека : S_TEXT/UTF8
Идентификатор кодека/Информация : UTF-8 Plain Text
Продолжительность : 1 ч. 38 м.
Битрейт : 41 бит/сек
ElementCount : 674
Размер потока : 29,9 Кбайт (0%)
Заголовок : английские
Язык : English
Default : Нет
Forced : Нет

Меню
00:00:00.000 : :Chapter 01
00:07:39.083 : :Chapter 02
00:10:58.491 : :Chapter 03
00:18:49.711 : :Chapter 04
00:23:40.210 : :Chapter 05
00:31:38.730 : :Chapter 06
00:37:20.947 : :Chapter 07
00:43:47.541 : :Chapter 08
00:48:39.207 : :Chapter 09
00:56:10.867 : :Chapter 10
01:03:50.409 : :Chapter 11
01:08:56.257 : :Chapter 12
01:17:00.949 : :Chapter 13
01:22:14.387 : :Chapter 14
01:28:35.518 : :Chapter 15
01:34:10.728 : :Chapter 16
pb.wtf



Скачать Гаттака через торрент http://s018.radikal.ru/i523/1710/06/18b02630605c.jpg Скачать фильм Гаттака через торрент бесплантно в хорошем качестве О фильме: Добро пожаловать в Гаттаку — совершенный мир будущего. Здесь каждый генетически запрограммирован, и печальная судьба ожидает тех, ... 7.8 10 4
Info! Золотая раздача, скачанное не засчитывается.
Торрент: Зарегистрирован [2017-10-12 06:02] · скачан: 37 раз
Статус: √ проверено
Размер: 14.06 GB
Как cкачать? Как скачать Гаттака через торрент | qTorrent

% Раздел Тема Автор DL S | L
Фильмы [HD 720p, 1080p] (Хороший звук DUB, MVO) [ 5.67 GB ] Гаттака / Gattaca [1997 BDRip 720p by msltel] DUB MVO 3 x AVO msltel Скачать
1 | 0

28-11-2019 20:33  

Отключить всю рекламу на сайте

    Дорогой пользователь! Огромная просьба, поблагодарите релизера, оцените раздачу и оставьте свои комментарий, если Вы скачали Гаттака через торрент бесплатно! Внесите свою лепту в развитие PiratBit!
    Комментировать посты могут только пользователи прошедшие не сложную регистрацию
    Показать сообщения:    

    Гаттака через торрент
    Скачать бесплатно Гаттака
    Гаттака скачать торрент
    Гаттака смотреть онлайн
    Cкачать фильм Гаттака бесплатно
    Гаттака скачать торрент в хорошем качестве
    Гаттака смотреть онлайн бесплатно в хорошем качестве


    Вы не можете начинать темы
    Вы не можете отвечать на сообщения
    Вы не можете редактировать свои сообщения
    Вы не можете удалять свои сообщения
    Вы не можете голосовать в опросах
    Вы не можете прикреплять файлы к сообщениям
    Вы можете скачивать файлы