Доктор Стрэндж

Лицензия

Добыча

Дубляж

Уэнсдэй

1 сезон

Тор

Дубляж

В эфире

Дубляж

Там, где раки поют

MVO

Властелин колец

1 сезон

Deluxe

pack

Рекомендуем

30

Пиратка

ВАЖНО

ВАЖНО

Ghostwire

Пиратка

jed

RePack

nioh2

RePack

RDR2

RePack

NEED FOR SPEED™ PAYBACK

RePack

скачать торрент

Кинопоиск HD

Острые козырьки 6 сезон

6 сезон

FAR CRY 6

RePack

скачать торрент

Лицензия

скачать торрент

MVO

1

1 сезон

скачать торрент

1 сезон

скачать торрент

Лицензия

  

Всем нужна Кэт / Cat Run (Джон Стокуэлл) [2011, боевик, комедия, BDRip 1080p ] MVO

Всем нужна Кэт через торрент pb.wtf

Размер: 14.09 GB | Добавлен: 5 лет 1 мес. назад | Торрент скачан:39 раз
Смотреть онлайн | Скачать   

12-10-2017 06:58 Всем нужна Кэт Скачать торрент  

Название: Всем нужна Кэт
Оригинальное название: Cat Run
Год выпуска: 2011
Страна: США
Жанр: боевик, комедия
Продолжительность: 01:44:54
Перевод: профессиональный многоголосый

Режиссер: Джон Стокуэлл
В ролях: Кристофер МакДональд, Паз Вега, Скотт Мехловиц, Тони Карран, Джанет МакТир, Карел Роден, Мишель Ломбардо, Бранко Джурич, Елена Гаврилович, Альфонсо МакОли, Билл Перкинс, Гордан Кичич, Жан-Кристоф Буве

Описание: Специальный агент британской разведки MI-6 Элен Бингам уже несколько лет как на пенсии. Однако этот факт не мешает респектабельной пенсионерке иногда смахивать пыль с залежавшегося на полке браунинга и браться за деликатные частные заказы. Клиентам хорошо известны бескомпромиссные методы агента Бингам: если кто попался на её пути — пощады не ожидается. На этот раз бывшей шпионке необходимо разыскать красавицу Кэт, которая случайно захватила с элитной вечеринки кое-какие бумаги, не предназначенные для посторонних глаз. Теперь всем нужна Кэт...



Качество: BDRip 1080p
Формат: MKV
Видео: MPEG-4 AVC, 16.2 Mбит/с, 1920x1080
Аудио 1: русский, DTS, 1509 kbps, 6 ch [профессиональный многоголосый]
Аудио 2: английский, DTS, 1509 kbps, 6 ch, 48 kHz [оригинал]
Субтитры: русские
Имеются неименованные главы/чаптеры.
Общее
Уникальный идентификатор : 184948040439474452848793118890448299037 (0x8B23B26999569C94938DB7754192A41D)
Полное имя : D:\Video\Всем нужна Кэт.2011.BDRip.1080p by msltel.mkv
Формат : Matroska
Версия формата : Version 4 / Version 2
Размер файла : 14,1 Гбайт
Продолжительность : 1 ч. 44 м.
Общий поток : 19,2 Мбит/сек
Название фильма : Rip by msltel
Дата кодирования : UTC 2017-10-12 02:21:14
Программа кодирования : mkvmerge v8.2.0 ('World of Adventure') 64bit
Библиотека кодирования : libebml v1.3.1 + libmatroska v1.4.2

Видео
Идентификатор : 1
Формат : AVC
Формат/Информация : Advanced Video Codec
Профиль формата : [email protected]
Параметр CABAC формата : Да
Параметр RefFrames формата : 4 кадра
Идентификатор кодека : V_MPEG4/ISO/AVC
Продолжительность : 1 ч. 44 м.
Битрейт : 16,2 Мбит/сек
Ширина : 1920 пикселей
Высота : 1080 пикселей
Соотношение сторон : 16:9
Режим частоты кадров : Постоянный
Частота кадров : 23,976 (24000/1001) кадра/сек
Цветовое пространство : YUV
Субдискретизация насыщенности : 4:2:0
Битовая глубина : 8 бит
Тип развёртки : Прогрессивная
Бит/(Пиксели*Кадры) : 0.326
Размер потока : 11,9 Гбайт (84%)
Библиотека кодирования : x264 core 146 r2538 121396c
Настройки программы : cabac=1 / ref=4 / deblock=1:-3:-2 / analyse=0x3:0x113 / me=umh / subme=11 / psy=1 / psy_rd=1.00:0.15 / mixed_ref=1 / me_range=32 / chroma_me=1 / trellis=2 / 8x8dct=1 / cqm=0 / deadzone=21,11 / fast_pskip=0 / chroma_qp_offset=-3 / threads=6 / lookahead_threads=1 / sliced_threads=0 / nr=0 / decimate=1 / interlaced=0 / bluray_compat=0 / constrained_intra=0 / bframes=6 / b_pyramid=2 / b_adapt=2 / b_bias=0 / direct=1 / weightb=1 / open_gop=0 / weightp=2 / keyint=230 / keyint_min=23 / scenecut=40 / intra_refresh=0 / rc_lookahead=40 / rc=crf / mbtree=0 / crf=19.7 / qcomp=0.60 / qpmin=0 / qpmax=69 / qpstep=4 / vbv_maxrate=62500 / vbv_bufsize=78125 / crf_max=0.0 / nal_hrd=none / filler=0 / ip_ratio=1.40 / pb_ratio=1.30 / aq=1:1.00
Язык : English
Default : Да
Forced : Нет

Аудио #1
Идентификатор : 2
Формат : DTS
Формат/Информация : Digital Theater Systems
Режим : 16
Параметр Endianness формата : Big
Идентификатор кодека : A_DTS
Продолжительность : 1 ч. 44 м.
Вид битрейта : Постоянный
Битрейт : 1509 Кбит/сек
Каналы : 6 каналов
Расположение каналов : Front: L C R, Side: L R, LFE
Частота : 48,0 КГц
Частота кадров : 93,750 кадра/сек (512 SPF)
Битовая глубина : 16 бит
Метод сжатия : С потерями
Размер потока : 1,11 Гбайт (8%)
Заголовок : MVO
Язык : Russian
Default : Да
Forced : Нет

Аудио #2
Идентификатор : 3
Формат : DTS
Формат/Информация : Digital Theater Systems
Режим : 16
Параметр Endianness формата : Big
Идентификатор кодека : A_DTS
Продолжительность : 1 ч. 44 м.
Вид битрейта : Постоянный
Битрейт : 1509 Кбит/сек
Каналы : 6 каналов
Расположение каналов : Front: L C R, Side: L R, LFE
Частота : 48,0 КГц
Частота кадров : 93,750 кадра/сек (512 SPF)
Битовая глубина : 16 бит
Метод сжатия : С потерями
Размер потока : 1,11 Гбайт (8%)
Заголовок : original
Язык : English
Default : Нет
Forced : Нет

Текст
Идентификатор : 4
Формат : UTF-8
Идентификатор кодека : S_TEXT/UTF8
Идентификатор кодека/Информация : UTF-8 Plain Text
Продолжительность : 1 ч. 41 м.
Битрейт : 126 бит/сек
ElementCount : 1676
Размер потока : 93,4 Кбайт (0%)
Заголовок : русские
Язык : Russian
Default : Нет
Forced : Нет

Меню
00:00:00.000 : :Chapter 01
00:04:49.372 : :Chapter 02
00:09:57.680 : :Chapter 03
00:13:26.222 : :Chapter 04
00:16:26.026 : :Chapter 05
00:21:39.715 : :Chapter 06
00:26:41.391 : :Chapter 07
00:30:19.025 : :Chapter 08
00:35:34.841 : :Chapter 09
00:40:13.953 : :Chapter 10
00:45:05.244 : :Chapter 11
00:51:15.113 : :Chapter 12
00:55:44.632 : :Chapter 13
01:02:28.244 : :Chapter 14
01:08:14.507 : :Chapter 15
01:16:22.911 : :Chapter 16
01:22:25.565 : :Chapter 17
01:39:33.634 : :Chapter 18
01:44:53.453 : :Chapter 19



Скачать Всем нужна Кэт через торрент http://s010.radikal.ru/i311/1710/37/f37faa05d7ae.jpg Скачать, смотреть онлайн Всем нужна Кэт бесплантно в хорошем качестве Описание: Специальный агент британской разведки MI-6 Элен Бингам уже несколько лет как на пенсии. Однако этот факт не мешает ... 8 10 2
Info! Золотая раздача, скачанное не засчитывается.
Торрент: Зарегистрирован [2017-10-12 06:58] · скачан: 39 раз
Статус: √ проверено
Размер: 14.09 GB
Как cкачать? Как скачать Всем нужна Кэт через торрент | UTorrent

% Раздел Тема Автор DL S | L
Фильмы [HD 720p, 1080p] (Хороший звук DUB, MVO) [ 4.88 GB ] Всем нужна Кэт / Cat Run | MVO | 720p msltel Скачать
1 | 0

28-11-2019 20:33  


Отключить вcю реклaмy на сайте, в т.ч. и в плеере онлайн просмотра!

12-10-2017 13:01 Всем нужна Кэт Скачать торрент  

Кристофер МакДональд, Паз Вега, Скотт Мехловиц, Тони Карран, Джанет МакТир, Карел Роден, Мишель Ломбардо, Бранко Джурич, Елена Гаврилович, Альфонсо МакОли, Билл Перкинс, Гордан Кичич, Жан-Кристоф Буве

Кто все эти люди???



14-10-2017 03:47 Всем нужна Кэт Скачать торрент  

Я видел девушку которая в главной роли снималась с Адамом Сендрелем Испанский Английский



    Дорогой пользователь! Огромная просьба, поблагодарите релизера, оцените раздачу и оставьте свои комментарий, если Вы скачали Всем нужна Кэт через торрент бесплатно!!
    Комментировать посты могут только пользователи прошедшие не сложную регистрацию
    Показать сообщения:    


    Всем нужна Кэт через торрент
    Скачать бесплатно Всем нужна Кэт
    Всем нужна Кэт скачать торрент
    Всем нужна Кэт смотреть онлайн
    Cкачать фильм Всем нужна Кэт бесплатно
    Всем нужна Кэт скачать торрент в хорошем качестве
    Всем нужна Кэт смотреть онлайн бесплатно в хорошем качестве
    Вы не можете начинать темы
    Вы не можете отвечать на сообщения
    Вы не можете редактировать свои сообщения
    Вы не можете удалять свои сообщения
    Вы не можете голосовать в опросах
    Вы не можете прикреплять файлы к сообщениям
    Вы можете скачивать файлы
    Всем нужна Кэт / Cat Run [2011, боевик, комедия, BDRip 1080p ] MVO смотреть онлайн, скачать торрент picoco.icu