новый адрес пиратбит piratbit
Мега распродажа FORZA HORIZON 4 ULTIMATE+ВСЕ DLC+ОНЛАЙН всего за 499р. 349 руб. (супер цена). Внимание количество ограничено!!!

iTunes

1+1

iTunes

мы

iTunes

1

iTunes

Чернобыль

iTunes

Ральф против интернета

Лицензия

ПШазам

Лицензия

Игра престолов

Лицензия

30
pack

ВАЖНО

!!Акция!!

Alien_RageХит недели

RePack

Resident Evil 21

ИГРА 18+

pack

RePack

Metro:Exodus

!!Акция!!

Alien_Rage

RePack

fifa19

RePack

Assassins Creed: Odyssey

RePack

NEED FOR SPEED™ PAYBACK

3 сезон

9 сезон

Бесстыжие 9 сезон

Все сериалы

все сериалы на PB.wtf

RePack

FAR CRY 5
Ребята, катастрофически не хватает 1900р. для оплаты серверов за Октябрь (всвязи с блокировками трафик упал в 3 раза), 1-2р., выручайте.
  

На зеленой земле моей (Игорь Шишов, Ричард Викторов) [1958, СССР, драма, DVDRip от AVP Studio] pb.wtf

На зеленой земле моей через торрент pb.wtf

Размер: 745 MB | Добавлен: 2 года 1 мес. назад | Торрент скачан:18 раз
Скачать  

12-10-2017 08:53 На зеленой земле моей Скачать торрент  

На зеленой земле моей
Страна: СССР
Производство: Одесская киностудия

Жанр: драма
Год выпуска: 1958
Продолжительность: 01:03:50

Перевод: Не требуется
Cубтитры: нет
Оригинальная аудиодорожка: русский

Режиссер: Игорь Шишов, Ричард Викторов

В ролях:
Николай Довженко, Жанна Дмитренко, П. Колесник, Надежда Семенцова, Лаврентий Масоха, Михаил Егоров, Нина Кукушкина, И. Мыльный...
Об актёрах подробней

Описание:
На лесной поляне собрались празднично одетые люди. Это жители Карпат - лесорубы. Летит над лесом задорная гуцульская мелодия. Сегодня небольшой праздник. За хорошую работу премировали радиоприёмником бригадира лесорубов Антона Гулыгу (Николай Довженко). Но на танцах он оплошал: не успел пригласить дочь лесничего Василину. Зато успел Илья. Он красив и строен, и пляшет отменно. Но Илья завистлив к славе знатного бригадира Антона, да и до денег жаден.

Источник: DVD5 R5
Качество видео: DVDRip
Формат видео: AVI

Видео: 720x544 (4:3), 25 fps, XviD ~ 1430 kbps avg, 0.146 bit/pixel
Аудио: 48 kHz, Dolby Digital AC3 2.0, 192 kbps

Раздача от:
Общее
Полное имя : Na.zelenoy.zemle.moey.1958.DVDRip_[New-team]_by_AVP_Studio.avi
Формат : AVI
Формат/Информация : Audio Video Interleave
Размер файла : 745 Мбайт
Продолжительность : 1 ч. 3 м.
Общий поток : 1632 Кбит/сек
Программа кодирования : VirtualDubMod 1.5.10.3 | www.virtualdub-fr.org || (build 2550/release)
Библиотека кодирования : VirtualDubMod build 2550/release

Видео
Идентификатор : 0
Формат : MPEG-4 Visual
Профиль формата : Advanced Simple@L5
Параметр BVOP формата : 1
Параметр QPel формата : Нет
Параметр GMC формата : Без точки перехода
Параметр матрицы формата : Выборочная
Идентификатор кодека : XVID
Идентификатор кодека/Подсказка : XviD
Продолжительность : 1 ч. 3 м.
Битрейт : 1430 Кбит/сек
Ширина : 720 пикселей
Высота : 544 пикселя
Соотношение сторон : 4:3
Частота кадров : 25,000 кадров/сек
Цветовое пространство : YUV
Субдискретизация насыщенности : 4:2:0
Битовая глубина : 8 бит
Тип развёртки : Прогрессивная
Метод сжатия : С потерями
Бит/(Пиксели*Кадры) : 0.146
Размер потока : 653 Мбайт (88%)
Библиотека кодирования : XviD 73

Аудио
Идентификатор : 1
Формат : AC-3
Формат/Информация : Audio Coding 3
Параметр Endianness формата : Big
Идентификатор кодека : 2000
Продолжительность : 1 ч. 3 м.
Вид битрейта : Постоянный
Битрейт : 192 Кбит/сек
Каналы : 2 канала
Расположение каналов : Front: L R
Частота : 48,0 КГц
Частота кадров : 31,250 кадров/сек (1536 SPF)
Битовая глубина : 16 бит
Метод сжатия : С потерями
Размер потока : 87,7 Мбайт (12%)
Выравнивание : Разделение по промежуткам
Продолжительность промежутка : 40 мс. (1,00 видеокадр)
Время предзагрузки промежутка : 500 мс
pb.wtf



Скачать На зеленой земле моей через торрент http://s018.radikal.ru/i500/1710/e2/a79a1ca99c19.png Скачать фильм На зеленой земле моей через торрент бесплантно в хорошем качестве Описание:На лесной поляне собрались празднично одетые люди. Это жители Карпат - лесорубы. Летит над лесом задорная гуцульская мелодия. ... 5 10 1
Info! Золотая раздача, скачанное не засчитывается.
Торрент: Зарегистрирован [2017-10-12 08:53] · скачан: 18 раз
Статус: √ проверено
Размер: 745 MB
Как cкачать? Как скачать На зеленой земле моей через торрент | qTorrent

% Раздел Тема Автор DL S | L
Кино СССР [ 745 MB ] На зеленой земле моей [1958 СССР DVDRip-AVC от AVP Studio] AVP Studio Скачать
1 | 0


>> Регистрируемся здесь <<






Отзывы и комментарии о схеме читаем и пишем здесь: ---> Отзывы и комментарии о схеме

Новые благодарочки в телеграм довольных пользователей:
скриншот   скриншот   скриншот   скриншот   скриншот
    Дорогой пользователь! Огромная просьба, поблагодарите релизера, оцените раздачу и оставьте свои комментарий, если Вы скачали На зеленой земле моей через торрент бесплатно! Внесите свою лепту в развитие PiratBit!
    Комментировать посты могут только пользователи прошедшие не сложную регистрацию
    Показать сообщения:    

    На зеленой земле моей через торрент
    Скачать бесплатно На зеленой земле моей
    На зеленой земле моей скачать торрент
    На зеленой земле моей смотреть онлайн
    Cкачать фильм На зеленой земле моей бесплатно
    На зеленой земле моей скачать торрент в хорошем качестве
    На зеленой земле моей смотреть онлайн бесплатно в хорошем качестве


    Вы не можете начинать темы
    Вы не можете отвечать на сообщения
    Вы не можете редактировать свои сообщения
    Вы не можете удалять свои сообщения
    Вы не можете голосовать в опросах
    Вы не можете прикреплять файлы к сообщениям
    Вы можете скачивать файлы