Ссылка на приватное зеркало нашего сайта всего за 1$. Внимание количество ограничено!!!

2 сезон

iTunes

1 сезон

1

2 сезон

2 сезон

iTunes

1 сезон

RePack

30

Новинка

ВАЖНО

ИГРА 18+

pack

RePack

MK11
pack

Забери бонус

RePack

jed

!!Акция!!

Alien_Rage

RePack

fifa19

RePack

Assassins Creed: Odyssey

RePack

NEED FOR SPEED™ PAYBACK

4 сезон

9 сезон

Бесстыжие 9 сезон

Все сериалы

все сериалы на PB.wtf

RePack

FAR CRY 5
  

Отважные / The Brave / Сезон: 1 / Серии 1-4 из 20 (Брэд Андерсон) [2017, США, Драма, WEBRip 720p] MVO [BaibaKo] pb.wtf

Отважные через торрент pb.wtf

Размер: 7.5 GB | Добавлен: 3 года 1 мес. назад | Торрент скачан:16 раз
Скачать  

12-10-2017 11:58 Отважные Скачать торрент  


Отважные / The Brave



  • Год выпуска: 2017
  • Страна: США
  • Жанр: Драма
  • Продолжительность: ~ 00:42:00 (Серия)
  • Перевод: Профессиональный многоголосый [BaibaKo]
  • Режиссер: Брэд Андерсон
  • В ролях:
    Майк Фогель, Энн Хеч, Тейт Эллингтон, София Пернас, Аликс Вилтон Риган, Деметриус Гросс, Ной Миллс, Керем Джан, Оливер Уолкер и др.


  • В центре сюжета драматического сериала — события, в которые оказались втянуты десятки людей, от высшего военного командования до рядовых пехотинцев. Американские военнослужащие выполняют опасное задание на территории, занятой террористами. Управление операцией, которую проводит элитное подразделение спецназа, осуществляет Патриция Кемпбелл и команда ее аналитиков. Но события развиваются непредсказуемо. И вот уже американскому командованию приходится думать о том, как спасти своих военных и вернуть их домой.
  • Рейтинг:



  • Качество: WEBRip 720p
  • Формат: :MKV
  • Видео кодек: AVC
  • Аудио кодек: AC3
  • Видео: 4475 Кбит/сек, 1280*720 (16:9), в 23,976 (24000/1001) кадра/сек, AVC
  • Аудио №1: русский 640 Кбит/сек, 48,0 КГц, 16 бит, 6 каналов, AC-3 |[BaibaKo]|
  • Аудио №2: английский 640 Кбит/сек, 48,0 КГц, 16 бит, 6 каналов, AC-3
  • Релиз от: GEKADOL

    Внимание! Раздача ведётся путём добавления новых серий; при каждом добавлении создаётся новый торрент. Чтобы начать докачку новой серии, пользователям необходимо сделать следующее:
    (1) остановить скачивание,
    (2) удалить старый торрент у себя из клиента (старые серии удалять не надо),
    (3) скачать новый торрент и запустить его у себя в клиенте вместо старого, при этом указать клиенту путь в старую папку куда и должно происходить скачивание новых серий.
    Ваш клиент при этом должен произвести хеширование (проверку) старой папки (если не производит сам - помогите ему сделать это), и будет докачивать только те серии которых у вас ещё нет. Старые серии при этом не удаляются, а продолжают раздаваться!
    Eсли вы уже удалили старые серии, то предотвратить повторную закачку старых серий можно, отжав галочку в соответствующих местах при запуске нового торрента. По возможности, желательно не удалять старые серии как можно дольше чтобы релизёр не столько продолжал раздавать старые серии, а смог сконцентрироваться на новых.

    Общее
    Уникальный идентификатор : 226898745305782316711641106444769955979 (0xAAB31BD9D8CE6DEEBB5E827959F6108B)
    Полное имя : G:\Отважные (The Brave)\The.Brave.s01e03.HD720p.WEBRip.Rus.Eng.BaibaKo.tv.mkv
    Формат : Matroska
    Версия формата : Version 4 / Version 2
    Размер файла : 1,68 Гбайт
    Продолжительность : 41 м. 49 с.
    Общий поток : 5757 Кбит/сек
    Дата кодирования : UTC 2017-10-12 11:40:42
    Программа кодирования : mkvmerge v14.0.0 ('Flow') 64bit
    Библиотека кодирования : libebml v1.3.4 + libmatroska v1.4.5

    Видео
    Идентификатор : 1
    Формат : AVC
    Формат/Информация : Advanced Video Codec
    Профиль формата : High@L4.1
    Параметр CABAC формата : Да
    Параметр RefFrames формата : 9 кадров
    Идентификатор кодека : V_MPEG4/ISO/AVC
    Продолжительность : 41 м. 49 с.
    Битрейт : 4475 Кбит/сек
    Ширина : 1280 пикселей
    Высота : 720 пикселей
    Соотношение сторон : 16:9
    Режим частоты кадров : Постоянный
    Частота кадров : 23,976 (24000/1001) кадра/сек
    Цветовое пространство : YUV
    Субдискретизация насыщенности : 4:2:0
    Битовая глубина : 8 бит
    Тип развёртки : Прогрессивная
    Бит/(Пиксели*Кадры) : 0.203
    Размер потока : 1,31 Гбайт (78%)
    Default : Нет
    Forced : Нет

    Аудио #1
    Идентификатор : 2
    Формат : AC-3
    Формат/Информация : Audio Coding 3
    Параметр Endianness формата : Big
    Идентификатор кодека : A_AC3
    Продолжительность : 41 м. 49 с.
    Вид битрейта : Постоянный
    Битрейт : 640 Кбит/сек
    Каналы : 6 каналов
    Расположение каналов : Front: L C R, Side: L R, LFE
    Частота : 48,0 КГц
    Частота кадров : 31,250 кадров/сек (1536 SPF)
    Битовая глубина : 16 бит
    Метод сжатия : С потерями
    Задержка видео : 20 мс.
    Размер потока : 191 Мбайт (11%)
    ServiceKind/String : Complete Main
    Default : Да
    Forced : Нет

    Аудио #2
    Идентификатор : 3
    Формат : AC-3
    Формат/Информация : Audio Coding 3
    Параметр Endianness формата : Big
    Идентификатор кодека : A_AC3
    Продолжительность : 41 м. 49 с.
    Вид битрейта : Постоянный
    Битрейт : 640 Кбит/сек
    Каналы : 6 каналов
    Расположение каналов : Front: L C R, Side: L R, LFE
    Частота : 48,0 КГц
    Частота кадров : 31,250 кадров/сек (1536 SPF)
    Битовая глубина : 16 бит
    Метод сжатия : С потерями
    Задержка видео : 23 мс.
    Размер потока : 191 Мбайт (11%)
    Язык : English
    ServiceKind/String : Complete Main
    Default : Нет
    Forced : Нет



    Скриншоты:
    скриншот   скриншот   скриншот   скриншот   скриншот   скриншот   скриншот  
    скриншот  

    Раздача ведётся путём добавления новых серий. Добавлена 5 серия (19.10.2017).Просьба перекачать торрент файл.

    pb.wtf



  • Скачать Отважные через торрент http://pic1.kartinco.top/images/11/5izm4.jpg Скачать фильм Отважные через торрент бесплантно в хорошем качестве qw.png В центре сюжета драматического сериала — события, в которые оказались втянуты десятки людей, от высшего военного командования до ... 8.5 10 6
    Info! Серебряная раздача, засчитывается только 50% скачанного.
    Торрент: Зарегистрирован [2017-10-18 23:08] · скачан: 16 раз
    Статус: √ проверено
    Размер: 7.5 GB
    Как cкачать? Как скачать Отважные через торрент | qTorrent

    28-11-2019 20:33  

    Отключить всю рекламу на сайте

    19-10-2017 05:00 Отважные Скачать торрент  

    Видим этих ;отважных: в сирии , ираке, в авгане, A дома стрелять у них хорошо получается,pb.wtf



      Дорогой пользователь! Огромная просьба, поблагодарите релизера, оцените раздачу и оставьте свои комментарий, если Вы скачали Отважные через торрент бесплатно! Внесите свою лепту в развитие PiratBit!
      Комментировать посты могут только пользователи прошедшие не сложную регистрацию
      Показать сообщения:    

      Отважные через торрент
      Скачать бесплатно Отважные
      Отважные скачать торрент
      Отважные смотреть онлайн
      Cкачать фильм Отважные бесплатно
      Отважные скачать торрент в хорошем качестве
      Отважные смотреть онлайн бесплатно в хорошем качестве


      Вы не можете начинать темы
      Вы не можете отвечать на сообщения
      Вы не можете редактировать свои сообщения
      Вы не можете удалять свои сообщения
      Вы не можете голосовать в опросах
      Вы не можете прикреплять файлы к сообщениям
      Вы можете скачивать файлы