2 сезон

iTunes

MVO

1

2 сезон

iTunes

iTunes

1 сезон

RePack

30

Ultimate

ВАЖНО

ИГРА 18+

pack

RePack

MK11
pack

Легкие деньги

RePack

jed

RePack

fifa19

RePack

RDR2

RePack

NEED FOR SPEED™ PAYBACK

4 сезон

9 сезон

Бесстыжие 9 сезон

Все сериалы

все сериалы на PB.wtf

RePack

FAR CRY 5

Anonymous, доброй ночи, мы не успеваем собрать деньги на оплату серверов за декабрь и январь, помогите нам пожалуйста в это трудное время. В качестве благодарности мы отключим Вам всю рекламу на сайте (укажите свой ник в строку Ваше имя)!

×
  
Magnet ссылка

Снайпер: Идеальное убийство / Sniper: Ultimate Kill (Клаудио Фах / Claudio Fäh) [2017, США, боевик, триллер, драма, BDRip-AVC] MVO [Лицензия] pb.wtf

Снайпер: Идеальное убийство через торрент pb.wtf

Раздают: 1 [ 0 KB/s ]
Размер: 746 MB | Добавлен: 3 года 3 мес. назад | Торрент скачан:141 раз
Скачать  

12-10-2017 12:47 Снайпер: Идеальное убийство Скачать торрент  

Снайпер: Идеальное убийство
Sniper: Ultimate Kill

«This time, weapons change the game»


Страна: США
Жанр: боевик, триллер, драма
Год выпуска: 2017
Продолжительность: 01:33:18

Перевод: Профессиональный (многоголосый, закадровый) [Blu-ray EUR]
Субтитры: русские (полные)
Оригинальная аудиодорожка: нет

Режиссер: Клаудио Фах / Claudio Fäh

В ролях: Билли Зейн, Том Беренджер, Денай Гарсиа, Джо Ландо, Хуан Себастьян Калеро, Чад Коллинз, Хуан Пабло Гамбоа, Фелипе Калеро, Лучо Веласко

Описание:
Глава колумбийского наркокартеля объединят в своих руках все каналы доставки наркотиков в США. Его врагов уничтожает суперснайпер по кличке «Дьявол». Агентство по борьбе с наркотиками отправляет на борьбу с ними спецагента под прикрытием, опытного снайпера из морской разведки.



Релиз:

Автор рипа: stalkerok | Моя группа

Сэмпл

Качество видео: BDRip-AVC [Sniper: Ultimate Kill (2017) Blu-ray EUR 1080p]
Формат видео: MKV
Видео кодек: AVC
Аудио кодек: AAC
Видео: 995 Кбит/сек, 744*310 (2,40:1), в 23,976 (24000/1001) кадра/сек, AVC
Аудио: русский, 120 Кбит/сек, 48,0 КГц, 2 канала, AAC (LC)
Навигация по главам: есть

x264 [info]: frame I:1165 Avg QP:18.27 size: 31633
x264 [info]: frame P:28449 Avg QP:20.25 size: 11373
x264 [info]: frame B:104616 Avg QP:21.98 size: 3213

Общее
Уникальный идентификатор : 247482547179007850389852134585601664220 (0xBA2F67A31AC348EDA1397FBEF4D0A4DC)
Полное имя : M:\!Rips2017\Sniper Ultimate Kill\Sniper.Ultimate.Kill.2017.BDRip-AVC.RUS..stalkerok.new-team.mkv
Формат : Matroska
Версия формата : Version 4 / Version 2
Размер файла : 746 Мбайт
Продолжительность : 1 ч. 33 м.
Общий поток : 1118 Кбит/сек
Название фильма : Sniper: Ultimate Kill (2017) (Rip by stalkerok)
Дата кодирования : UTC 2017-10-11 22:42:48
Программа кодирования : mkvmerge v8.6.1 ('Flying') 64bit
Библиотека кодирования : libebml v1.3.3 + libmatroska v1.4.4

Видео
Идентификатор : 1
Формат : AVC
Формат/Информация : Advanced Video Codec
Профиль формата : High@L4.1
Параметр CABAC формата : Да
Параметр ReFrames формата : 16 кадров
Идентификатор кодека : V_MPEG4/ISO/AVC
Продолжительность : 1 ч. 33 м.
Битрейт : 995 Кбит/сек
Ширина : 744 пикселя
Высота : 310 пикселей
Соотношение сторон : 2,40:1
Режим частоты кадров : Постоянный
Частота кадров : 23,976 (24000/1001) кадра/сек
Цветовое пространство : YUV
Субдискретизация насыщенности : 4:2:0
Битовая глубина : 8 бит
Тип развёртки : Прогрессивная
Бит/(Пиксели*Кадры) : 0.180
Размер потока : 664 Мбайт (89%)
Заголовок : Sniper: Ultimate Kill (2017) (Rip by stalkerok)
Библиотека кодирования : x264 core 150 r2833kMod df79067
Настройки программы : cabac=1 / ref=16 / deblock=1:-2:-1 / analyse=0x3:0x133 / me=umh / subme=11 / psy=1 / fade_compensate=0.00 / psy_rd=1.00:0.00 / mixed_ref=1 / me_range=32 / chroma_me=1 / trellis=2 / 8x8dct=1 / cqm=0 / deadzone=21,11 / fast_pskip=0 / chroma_qp_offset=-2 / threads=10 / lookahead_threads=2 / sliced_threads=0 / nr=0 / decimate=1 / interlaced=0 / bluray_compat=0 / constrained_intra=0 / bframes=16 / b_pyramid=2 / b_adapt=2 / b_bias=0 / direct=3 / weightb=1 / open_gop=0 / weightp=2 / keyint=240 / keyint_min=23 / scenecut=40 / intra_refresh=0 / rc_lookahead=60 / rc=crf / mbtree=0 / crf=19.2000 / qcomp=0.65 / qpmin=0 / qpmax=69 / qpstep=4 / vbv_maxrate=50000 / vbv_bufsize=62500 / crf_max=0.0 / nal_hrd=none / filler=0 / ip_ratio=1.40 / pb_ratio=1.30 / aq=3:0.90 / zones=129824,134229,q=33
Default : Да
Forced : Нет

Аудио
Идентификатор : 2
Формат : AAC
Формат/Информация : Advanced Audio Codec
Профиль формата : LC
Идентификатор кодека : A_AAC
Продолжительность : 1 ч. 33 м.
Битрейт : 120 Кбит/сек
Каналы : 2 канала
Расположение каналов : Front: L R
Частота : 48,0 КГц
Частота кадров : 46,875 кадров/сек (1024 spf)
Метод сжатия : С потерями
Задержка видео : 9 мс.
Размер потока : 80,1 Мбайт (11%)
Язык : Russian
Default : Да
Forced : Нет

Текст
Идентификатор : 3
Формат : UTF-8
Идентификатор кодека : S_TEXT/UTF8
Идентификатор кодека/Информация : UTF-8 Plain Text
Продолжительность : 1 ч. 25 м.
Битрейт : 75 бит/сек
Count of elements : 927
Размер потока : 47,1 Кбайт (0%)
Язык : Russian
Default : Нет
Forced : Нет

Меню
00:00:00.000 : en:Chapter 1
00:04:19.634 : en:Chapter 2
00:09:10.258 : en:Chapter 3
00:16:38.956 : en:Chapter 4
00:26:19.828 : en:Chapter 5
00:31:34.559 : en:Chapter 6
00:37:23.241 : en:Chapter 7
00:44:08.771 : en:Chapter 8
00:48:09.928 : en:Chapter 9
00:51:42.307 : en:Chapter 10
00:56:47.320 : en:Chapter 11
01:04:21.232 : en:Chapter 12
01:11:19.400 : en:Chapter 13
01:15:25.395 : en:Chapter 14
01:19:42.778 : en:Chapter 15
01:25:53.898 : en:Chapter 16
скриншот   скриншот   скриншот   скриншот   скриншот   скриншот  
pb.wtf



Скачать Снайпер: Идеальное убийство через торрент http://i6.imageban.ru/out/2017/09/18/2ff75c0c358795c5946784cc1680714d.png Скачать фильм Снайпер: Идеальное убийство через торрент бесплантно в хорошем качестве Описание:Глава колумбийского наркокартеля объединят в своих руках все каналы доставки наркотиков в США. Его врагов уничтожает суперснайпер ... 10 10 4
Info! Золотая раздача, скачанное не засчитывается.
Торрент: Зарегистрирован [2017-10-12 12:47] · скачан: 141 раз
Статус: √ проверено
Размер: 746 MB
Как cкачать? Как скачать Снайпер: Идеальное убийство через торрент | UTorrent

% Раздел Тема Автор DL S | L
Фильмы 2017 [DVDrip, WEB-DLRip, HDrip] (DUB, MVO) [ 2.91 GB ] Снайпер: Идеальное убийство / Sniper: Ultimate Kill [2017 BDRip-AVC] MVO [] sokol_ok Скачать
2 | 0
Фильмы 2017 [DVDrip, WEB-DLRip, HDrip] (DUB, MVO) [ 1.47 GB ] Снайпер: Идеальное убийство / Sniper: Ultimate Kill [2017 BDRip-AVC] MVO [] sokol_ok Скачать
2 | 0
Фильмы 2017 [DVDrip, WEB-DLRip, HDrip] (DUB, MVO) [ 710 MB ] Снайпер: Идеальное убийство / Sniper: Ultimate Kill [2017 HDRip многоголосый "BD EUR"] coc900 Скачать
1 | 0
Фильмы [HD 720p, 1080p] (Хороший звук DUB, MVO) [ 11.57 GB ] Снайпер: Идеальное убийство / Sniper: Ultimate Kill [2017 BDRip 1080p] MVO [ Blu-ray EUR] bober100 Скачать
1 | 0
Фильмы 2017 [DVDrip, WEB-DLRip, HDrip] (DUB, MVO) [ 2.42 GB ] Снайпер: Идеальное убийство / Sniper: Ultimate Kill [2017 BDRip-AVC] MVO [ Blu-ray EUR] bober100 Скачать
1 | 0
Фильмы 2017 [DVDrip, WEB-DLRip, HDrip] (DUB, MVO) [ 1.46 GB ] Снайпер: Идеальное убийство / Sniper: Ultimate Kill [2017 BDRip] MVO [ Blu-ray EUR] bober100 Скачать
1 | 0
Фильмы (Blu-ray, BD-Remux, HDDVD) [ 24.81 GB ] Снайпер: Идеальное убийство / Sniper: Ultimate Kill [2017 Blu-ray EUR 1080p] MVO [] bober100 Скачать
1 | 0

28-11-2019 20:33  

Отключить всю рекламу на сайте

    Дорогой пользователь! Огромная просьба, поблагодарите релизера, оцените раздачу и оставьте свои комментарий, если Вы скачали Снайпер: Идеальное убийство через торрент бесплатно! Внесите свою лепту в развитие PiratBit!
    Комментировать посты могут только пользователи прошедшие не сложную регистрацию
    Показать сообщения:    

    Снайпер: Идеальное убийство через торрент
    Скачать бесплатно Снайпер: Идеальное убийство
    Снайпер: Идеальное убийство скачать торрент
    Снайпер: Идеальное убийство смотреть онлайн
    Cкачать фильм Снайпер: Идеальное убийство бесплатно
    Снайпер: Идеальное убийство скачать торрент в хорошем качестве
    Снайпер: Идеальное убийство смотреть онлайн бесплатно в хорошем качестве


    Вы не можете начинать темы
    Вы не можете отвечать на сообщения
    Вы не можете редактировать свои сообщения
    Вы не можете удалять свои сообщения
    Вы не можете голосовать в опросах
    Вы не можете прикреплять файлы к сообщениям
    Вы можете скачивать файлы