2 сезон

iTunes

MVO

1

2 сезон

iTunes

iTunes

1 сезон

RePack

30

Ultimate

ВАЖНО

ИГРА 18+

pack

RePack

MK11
pack

Легкие деньги

RePack

jed

RePack

fifa19

RePack

RDR2

RePack

NEED FOR SPEED™ PAYBACK

4 сезон

9 сезон

Бесстыжие 9 сезон

Все сериалы

все сериалы на PB.wtf

RePack

FAR CRY 5

Anonymous, доброй ночи, мы не успеваем собрать деньги на оплату серверов за декабрь и январь, помогите нам пожалуйста в это трудное время. В качестве благодарности мы отключим Вам всю рекламу на сайте (укажите свой ник в строку Ваше имя)!

×
  
Magnet ссылка

Дневник слабака 4: Долгое путешествие / Diary of a Wimpy Kid: The Long Haul (Дэвид Бауэрс) [2017 г., комедия, семейный, HDRip, Профессиональный многоголосый Лицензия "BD EUR"] pb.wtf

Дневник слабака 4: Долгое путешествие через торрент pb.wtf

Размер: 709 MB | Добавлен: 3 года 3 мес. назад | Торрент скачан:51 раз
Скачать  

12-10-2017 18:12 Дневник слабака 4: Долгое путешествие Скачать торрент  

Дневник слабака 4: Долгое путешествие / Diary of a Wimpy Kid: The Long Haul
Год выпуска: 2017
Страна: США / Twentieth Century Fox Film Corporation, TSG Entertainment, Color Force
Жанр: комедия, семейный
Продолжительность: 01:31:22
Перевод: Профессиональный многоголосый Лицензия (BD EUR)

Режиссер: Дэвид Бауэрс

rating

В ролях: Алисия Сильверстоун, Том Эверетт Скотт, Чарли Райт, Джейсон Йен Дракер, Алекса Блэр Робертсон, Оуэн Асталош, Элизабет Кинер, Кортни Лорен Каммингс, Джошуа Хувер, Эмма Ветцел

Описание: Новая, четвёртая по счёту часть приключений школьника Грега Хеффли, который, несмотря на свой незаурядный ум и амбициозность, никак не может поймать удачу за хвост. Главного героя продолжают преследовать неприятности, от которых он никак не может отделаться. Он попадает в истории не только в родной школе, но и на отдыхе. Однажды Грег принимает решение уговорить свою семью съездить на юбилей бабушки, которая совсем скоро должна отпраздновать свой 90-й день рождения. Парень собирается совместить приятное с полезным и попасть на ежегодную встречу лучших геймеров города…

Качество: HDRip
Формат: AVI
Видео кодек: XviD
Аудио кодек: MP3
Видео: 640x272 (2.35:1), 23.976 fps, XviD build 50 ~947 kbps avg, 0.23 bit/pixel
Аудио: 48 kHz, MPEG Layer 3, 2 ch, ~128.00 kbps avg
скриншот   скриншот   скриншот   скриншот  

Общее
Полное имя : F:\ФИЛЬМЫ\Дневник слабака 4. Долгое путешествие.2017.HDRip.avi
Формат : AVI
Формат/Информация : Audio Video Interleave
Размер файла : 709 Мбайт
Продолжительность : 1 ч. 31 м.
Общий поток : 1085 Кбит/сек
Программа кодирования : VirtualDubMod 1.5.10.3 | www.virtualdub-fr.org || (build 2550/release)
Библиотека кодирования : VirtualDubMod build 2550/release

Видео
Идентификатор : 0
Формат : MPEG-4 Visual
Профиль формата : Advanced Simple@L5
Настройки формата : BVOP1
Параметр BVOP формата : 1
Параметр QPel формата : Нет
Параметр GMC формата : Без точки перехода
Параметр матрицы формата : Default (MPEG)
Идентификатор кодека : XVID
Идентификатор кодека/Подсказка : XviD
Продолжительность : 1 ч. 31 м.
Битрейт : 947 Кбит/сек
Ширина : 640 пикселей
Высота : 272 пикселя
Соотношение сторон : 2,35:1
Частота кадров : 23,976 (24000/1001) кадра/сек
Цветовое пространство : YUV
Субдискретизация насыщенности : 4:2:0
Битовая глубина : 8 бит
Тип развёртки : Прогрессивная
Метод сжатия : С потерями
Бит/(Пиксели*Кадры) : 0.227
Размер потока : 619 Мбайт (87%)
Библиотека кодирования : XviD 1.2.1 (UTC 2008-12-04)

Аудио
Идентификатор : 1
Формат : MPEG Audio
Версия формата : Version 1
Профиль формата : Layer 3
Настройки формата : Joint stereo / MS Stereo
Режим : Joint stereo
Расширение режима : MS Stereo
Идентификатор кодека : 55
Идентификатор кодека/Подсказка : MP3
Продолжительность : 1 ч. 31 м.
Вид битрейта : Постоянный
Битрейт : 128 Кбит/сек
Каналы : 2 канала
Частота : 48,0 КГц
Метод сжатия : С потерями
Размер потока : 83,7 Мбайт (12%)
Выравнивание : Соединение по промежуткам
Продолжительность промежутка : 42 мс. (1,00 видеокадр)
Время предзагрузки промежутка : 504 мс.
Библиотека кодирования : LAME3.99r
Настройки программы : -m j -V 4 -q 2 -lowpass 17 -b 128

pb.wtf



Скачать Дневник слабака 4: Долгое путешествие через торрент http://pic1.kartinco.top/images/11/mq3md.jpg Скачать фильм Дневник слабака 4: Долгое путешествие через торрент бесплантно в хорошем качестве Описание: Новая, четвёртая по счёту часть приключений школьника Грега Хеффли, который, несмотря на свой незаурядный ум и амбициозность, ... 10 10 2
Торрент: Зарегистрирован [2017-10-12 18:12] · скачан: 51 раз
Статус: √ проверено
Размер: 709 MB
Как cкачать? Как скачать Дневник слабака 4: Долгое путешествие через торрент | UTorrent

% Раздел Тема Автор DL S | L
Фильмы 2017 [DVDrip, WEB-DLRip, HDrip] (DUB, MVO) [ 1.46 GB ] Дневник слабака 4: Долгое путешествие / Diary of a Wimpy Kid: The Long Haul [2017 BDRip] MVO [ BD EUR] bober100 Скачать
1 | 0

28-11-2019 20:33  

Отключить всю рекламу на сайте

    Дорогой пользователь! Огромная просьба, поблагодарите релизера, оцените раздачу и оставьте свои комментарий, если Вы скачали Дневник слабака 4: Долгое путешествие через торрент бесплатно! Внесите свою лепту в развитие PiratBit!
    Комментировать посты могут только пользователи прошедшие не сложную регистрацию
    Показать сообщения:    

    Дневник слабака 4: Долгое путешествие через торрент
    Скачать бесплатно Дневник слабака 4: Долгое путешествие
    Дневник слабака 4: Долгое путешествие скачать торрент
    Дневник слабака 4: Долгое путешествие смотреть онлайн
    Cкачать фильм Дневник слабака 4: Долгое путешествие бесплатно
    Дневник слабака 4: Долгое путешествие скачать торрент в хорошем качестве
    Дневник слабака 4: Долгое путешествие смотреть онлайн бесплатно в хорошем качестве


    Вы не можете начинать темы
    Вы не можете отвечать на сообщения
    Вы не можете редактировать свои сообщения
    Вы не можете удалять свои сообщения
    Вы не можете голосовать в опросах
    Вы не можете прикреплять файлы к сообщениям
    Вы можете скачивать файлы