Всегда рабочее зеркало без VPN и Proxy просто перед .vidak.icu напиши любое слово или цифру, Пример http://vy02.vidak.icu

iTunes

2 сезон

1 сезон

1

1 сезон

iTunes

2 сезон

13

1 сезон

Deluxe

pack

Рекомендуем

Пиратка

30

ВАЖНО

RePack

MK11

RePack

jed

RePack

fifa19

RePack

RDR2

RePack

NEED FOR SPEED™ PAYBACK

Кинопоиск HD

6 сезон

 Острые козырьки 6 сезон

Все сериалы

все сериалы на PB.wtf

RePack

FAR CRY 5

Anonymous, нам критически не хватает 5601 руб. на оплату серверов и переферии за Апрель, помоги нам пожалуйста, вся надежда только на тебя. В благодарность мы отключим тебе всю рекламу на сайте!

×
  
Magnet ссылка

Полный беспредел / Autoreiji: Biyondo (Такеши Китано) [2012, криминал, триллер, драма, BDRip 720p by msltel] MVO pb.wtf

Полный беспредел через торрент pb.wtf

Размер: 4.29 GB | Добавлен: 4 года 7 мес. назад | Торрент скачан:26 раз
Смотреть онлайн Полный беспредел | Скачать    Ребята, помогите собрать деньги на оплату серверов!!!

13-10-2017 05:35 Полный беспредел Скачать торрент  

Название: Полный беспредел
Оригинальное название: Autoreiji: Biyondo
Год выпуска: 2012
Страна: Япония
Жанр: криминал, триллер, драма
Продолжительность: 01:52:28
Перевод: профессиональный многоголосый

Режиссер: Такеши Китано
В ролях: Такеши Китано, Рё Касэ, Тосиюки Нисида, Томокадзу Миура, Хирофуми Арай, Ютака Мацусигэ, Акира Накао, Кен Мицуйси, Кента Киритани, Мачико Оно

О фильме: Криминальная семья Санно выросла в огромную организацию, чья Влacть распространилась на политику и крупный легальный бизнес. Амбициозный детектив Катаока при помощи тайных заговоров и грязных трюков провоцирует конфликт между Санно и их давними врагами Ханабиси, надеясь, что они окончательно уничтожат друг друга. Козырем в руках Катаоки может стать тот факт, что из тюрьмы готовится выйти Отомо, босс семьи, когда-то раздавленной Санно, которого многие считали мёртвым. Неожиданное возвращение Отомо сеет ещё больше лжи и предательства между семьями. Невозможно угадать, кто одержит верх в этой свирепой схватке за Влacть...



Качество: BDRip 720p
Формат: MKV
Видео: MPEG-4 AVC, 4365 Кбит/с, 1280x534
Аудио 1: русский, AC3, 640 kbps, 6 ch [профессиональный многоголосый]
Аудио 2: японский, AC3, 448 kbps, 6 ch, 48 kHz [оригинал]
Субтитры 1: русские
Субтитры 2: английские
Имеются неименованные главы/чаптеры.
Общее
Уникальный идентификатор : 245144723793955398103729604841512910755 (0xB86D280B8E5ACE0188C7D34A55C43FA3)
Полное имя : D:\Video\Полный беспредел.2012.BDRip.720p by msltel.mkv
Формат : Matroska
Версия формата : Version 4 / Version 2
Размер файла : 4,29 Гбайт
Продолжительность : 1 ч. 52 м.
Общий поток : 5456 Кбит/сек
Название фильма : Rip by msltel
Дата кодирования : UTC 2017-10-12 08:03:43
Программа кодирования : mkvmerge v8.2.0 ('World of Adventure') 64bit
Библиотека кодирования : libebml v1.3.1 + libmatroska v1.4.2

Видео
Идентификатор : 1
Формат : AVC
Формат/Информация : Advanced Video Codec
Профиль формата : High@L4.1
Параметр CABAC формата : Да
Параметр RefFrames формата : 9 кадров
Идентификатор кодека : V_MPEG4/ISO/AVC
Продолжительность : 1 ч. 52 м.
Битрейт : 4365 Кбит/сек
Ширина : 1280 пикселей
Высота : 534 пикселя
Соотношение сторон : 2,40:1
Режим частоты кадров : Постоянный
Частота кадров : 23,976 (24000/1001) кадра/сек
Цветовое пространство : YUV
Субдискретизация насыщенности : 4:2:0
Битовая глубина : 8 бит
Тип развёртки : Прогрессивная
Бит/(Пиксели*Кадры) : 0.266
Размер потока : 3,43 Гбайт (80%)
Библиотека кодирования : x264 core 146 r2538 121396c
Настройки программы : cabac=1 / ref=9 / deblock=1:-3:-2 / analyse=0x3:0x113 / me=umh / subme=11 / psy=1 / psy_rd=1.00:0.15 / mixed_ref=1 / me_range=32 / chroma_me=1 / trellis=2 / 8x8dct=1 / cqm=0 / deadzone=21,11 / fast_pskip=0 / chroma_qp_offset=-3 / threads=6 / lookahead_threads=1 / sliced_threads=0 / nr=0 / decimate=1 / interlaced=0 / bluray_compat=0 / constrained_intra=0 / bframes=10 / b_pyramid=2 / b_adapt=2 / b_bias=0 / direct=1 / weightb=1 / open_gop=0 / weightp=2 / keyint=230 / keyint_min=23 / scenecut=40 / intra_refresh=0 / rc_lookahead=40 / rc=crf / mbtree=0 / crf=18.7 / qcomp=0.60 / qpmin=0 / qpmax=69 / qpstep=4 / vbv_maxrate=62500 / vbv_bufsize=78125 / crf_max=0.0 / nal_hrd=none / filler=0 / ip_ratio=1.40 / pb_ratio=1.30 / aq=1:1.00
Язык : Japanese
Default : Да
Forced : Нет

Аудио #1
Идентификатор : 2
Формат : AC-3
Формат/Информация : Audio Coding 3
Параметр Endianness формата : Big
Идентификатор кодека : A_AC3
Продолжительность : 1 ч. 52 м.
Вид битрейта : Постоянный
Битрейт : 640 Кбит/сек
Каналы : 6 каналов
Расположение каналов : Front: L C R, Side: L R, LFE
Частота : 48,0 КГц
Частота кадров : 31,250 кадров/сек (1536 SPF)
Битовая глубина : 16 бит
Метод сжатия : С потерями
Размер потока : 515 Мбайт (12%)
Заголовок : MVO
Язык : Russian
ServiceKind/String : Complete Main
Default : Да
Forced : Нет

Аудио #2
Идентификатор : 3
Формат : AC-3
Формат/Информация : Audio Coding 3
Параметр Endianness формата : Big
Идентификатор кодека : A_AC3
Продолжительность : 1 ч. 52 м.
Вид битрейта : Постоянный
Битрейт : 448 Кбит/сек
Каналы : 6 каналов
Расположение каналов : Front: L C R, Side: L R, LFE
Частота : 48,0 КГц
Частота кадров : 31,250 кадров/сек (1536 SPF)
Битовая глубина : 16 бит
Метод сжатия : С потерями
Размер потока : 360 Мбайт (8%)
Заголовок : original
Язык : Japanese
ServiceKind/String : Complete Main
Default : Нет
Forced : Нет

Текст #1
Идентификатор : 4
Формат : UTF-8
Идентификатор кодека : S_TEXT/UTF8
Идентификатор кодека/Информация : UTF-8 Plain Text
Продолжительность : 1 ч. 46 м.
Битрейт : 78 бит/сек
ElementCount : 1150
Размер потока : 61,0 Кбайт (0%)
Заголовок : русские
Язык : Russian
Default : Нет
Forced : Нет

Текст #2
Идентификатор : 5
Формат : UTF-8
Идентификатор кодека : S_TEXT/UTF8
Идентификатор кодека/Информация : UTF-8 Plain Text
Продолжительность : 1 ч. 46 м.
Битрейт : 42 бит/сек
ElementCount : 1158
Размер потока : 33,0 Кбайт (0%)
Заголовок : английские
Язык : English
Default : Нет
Forced : Нет

Меню
00:00:00.000 : en:00:00:00.000
00:11:55.214 : en:00:11:55.214
00:23:26.614 : en:00:23:26.614
00:37:38.840 : en:00:37:38.840
00:50:52.258 : en:00:50:52.258
00:59:44.080 : en:00:59:44.080
01:07:04.354 : en:01:07:04.354
01:16:47.228 : en:01:16:47.228
01:21:12.785 : en:01:21:12.785
01:33:53.336 : en:01:33:53.336
01:41:29.041 : en:01:41:29.041
01:48:04.061 : en:01:48:04.061
pb.wtf



Скачать Полный беспредел через торрент http://s010.radikal.ru/i313/1710/2a/e3f126e46f7d.jpg Скачать, смотреть онлайн Полный беспредел бесплантно в хорошем качестве О фильме: Криминальная семья Санно выросла в огромную организацию, чья Влacть распространилась на политику и крупный легальный бизнес. ... 5 10 1
Info! Золотая раздача, скачанное не засчитывается.
Торрент: Зарегистрирован [2017-10-13 05:35] · скачан: 26 раз
Статус: √ проверено
Размер: 4.29 GB
Как cкачать? Как скачать Полный беспредел через торрент | UTorrent

% Раздел Тема Автор DL S | L
Азиатские фильмы [ 12.77 GB ] Полный беспредел / Autoreiji: Biyondo [2012 BDRip 1080p by msltel] MVO msltel Скачать
1 | 0
Арт-хаус и авторское кино [ 2.05 GB ] Полный беспредел / Autoreiji: Biyondo [2012 HDRip MVO лицензия] k1z Скачать
1 | 0

28-11-2019 20:33  

Отключить всю рекламу на сайте

13-10-2017 06:01 Полный беспредел Скачать торрент  

Топик был перенесен из форума Фильмы [HD 720p, 1080p] (Хороший звук DUB, MVO) в форум Азиатские фильмы


bober100pb.wtf



    Дорогой пользователь! Огромная просьба, поблагодарите релизера, оцените раздачу и оставьте свои комментарий, если Вы скачали Полный беспредел через торрент бесплатно!
    Комментировать посты могут только пользователи прошедшие не сложную регистрацию
    Показать сообщения:    

    Полный беспредел через торрент
    Скачать бесплатно Полный беспредел
    Полный беспредел скачать торрент
    Полный беспредел смотреть онлайн
    Cкачать фильм Полный беспредел бесплатно
    Полный беспредел скачать торрент в хорошем качестве
    Полный беспредел смотреть онлайн бесплатно в хорошем качестве


    Вы не можете начинать темы
    Вы не можете отвечать на сообщения
    Вы не можете редактировать свои сообщения
    Вы не можете удалять свои сообщения
    Вы не можете голосовать в опросах
    Вы не можете прикреплять файлы к сообщениям
    Вы можете скачивать файлы