Всегда рабочее зеркало без VPN и Proxy просто перед .vidak.icu напиши любое слово или цифру, Пример http://yqhj.vidak.icu

MVO

Лицензия

1 сезон

1

1 сезон

iTunes

1 сезон

13

1 сезон

Deluxe

pack

Рекомендуем

Repack

30

ВАЖНО

RePack

MK11

RePack

jed

RePack

fifa19

RePack

RDR2

RePack

NEED FOR SPEED™ PAYBACK

Кинопоиск HD

6 сезон

 Острые козырьки 6 сезон

Все сериалы

все сериалы на PB.wtf

RePack

FAR CRY 5
  
Magnet ссылка

Неудачники / Micmacs a tire-larigot (Жан-Пьер Жене) [2009, боевик, комедия, криминал, BDRip 720p by msltel] DUB pb.wtf

Неудачники через торрент pb.wtf

Размер: 3.72 GB | Добавлен: 4 года 8 мес. назад | Торрент скачан:213 раз
Смотреть онлайн Неудачники | Скачать    Ребята, помогите собрать деньги на оплату серверов!!!

13-10-2017 07:19 Неудачники Скачать торрент  

Название: Неудачники
Оригинальное название: Micmacs a tire-larigot
Год выпуска: 2009
Страна: Франция
Жанр: боевик, комедия, криминал
Продолжительность: 01:44:15
Перевод: дублированный
Режиссер: Жан-Пьер Жене
В ролях: Дани Бун, Андре Дюссолье, Николас Мари, Жан-Пьер Марьель, Йоланда Моро, Жюли Ферье, Омар Сю, Доминик Пинон, Урбен Канселье, Патрик Пару, Жан-Пьер Бекер, Эрик Наггар, Арсен Моска, Доминик Беттенфельд, Жак Эрлен

О фильме: Базилю не везёт по жизни: то он чуть не погибает от шальной пули, то становится бездомным, то однажды с подобными ему «счастливчиками» начинает бороться за справедливость. И с кем бороться? с крупнейшими в стране производителями оружия. Но, кто знает, может на этот раз удача улыбнется ему?...



Качество: BDRip 720p
Формат: MKV
Видео: MPEG-4 AVC, 4217 Кбит/с, 1280x534, 23.976 кадр/с
Аудио 1: русский, AC3, 448 kbps, 6 ch [дублированный, R5]
Аудио 2: английский, AC3, 448 kbps, 6 ch, 48 kHz [оригинал]
Субтитры 1: русские
Субтитры 2: английские
Имеются неименованные главы/чаптеры.
Общее
Уникальный идентификатор : 232748270842503128991557753775280048552 (0xAF19AFBA01CFBA998D633280B2CF49A8)
Полное имя : D:\Video\Неудачники.2009.BDRip.720p by msltel.mkv
Формат : Matroska
Версия формата : Version 4 / Version 2
Размер файла : 3,72 Гбайт
Продолжительность : 1 ч. 44 м.
Общий поток : 5115 Кбит/сек
Название фильма : Rip by msltel
Дата кодирования : UTC 2017-10-13 05:01:10
Программа кодирования : mkvmerge v8.2.0 ('World of Adventure') 64bit
Библиотека кодирования : libebml v1.3.1 + libmatroska v1.4.2

Видео
Идентификатор : 1
Формат : AVC
Формат/Информация : Advanced Video Codec
Профиль формата : [email protected]
Параметр CABAC формата : Да
Параметр RefFrames формата : 9 кадров
Идентификатор кодека : V_MPEG4/ISO/AVC
Продолжительность : 1 ч. 44 м.
Битрейт : 4217 Кбит/сек
Ширина : 1280 пикселей
Высота : 534 пикселя
Соотношение сторон : 2,40:1
Режим частоты кадров : Постоянный
Частота кадров : 23,976 (24000/1001) кадра/сек
Цветовое пространство : YUV
Субдискретизация насыщенности : 4:2:0
Битовая глубина : 8 бит
Тип развёртки : Прогрессивная
Бит/(Пиксели*Кадры) : 0.257
Размер потока : 3,07 Гбайт (82%)
Библиотека кодирования : x264 core 146 r2538 121396c
Настройки программы : cabac=1 / ref=9 / deblock=1:-3:-2 / analyse=0x3:0x113 / me=umh / subme=11 / psy=1 / psy_rd=1.00:0.15 / mixed_ref=1 / me_range=32 / chroma_me=1 / trellis=2 / 8x8dct=1 / cqm=0 / deadzone=21,11 / fast_pskip=0 / chroma_qp_offset=-3 / threads=6 / lookahead_threads=1 / sliced_threads=0 / nr=0 / decimate=1 / interlaced=0 / bluray_compat=0 / constrained_intra=0 / bframes=9 / b_pyramid=2 / b_adapt=2 / b_bias=0 / direct=1 / weightb=1 / open_gop=0 / weightp=2 / keyint=230 / keyint_min=23 / scenecut=40 / intra_refresh=0 / rc_lookahead=40 / rc=crf / mbtree=0 / crf=19.0 / qcomp=0.60 / qpmin=0 / qpmax=69 / qpstep=4 / vbv_maxrate=62500 / vbv_bufsize=78125 / crf_max=0.0 / nal_hrd=none / filler=0 / ip_ratio=1.40 / pb_ratio=1.30 / aq=1:1.00
Язык : French
Default : Да
Forced : Нет

Аудио #1
Идентификатор : 2
Формат : AC-3
Формат/Информация : Audio Coding 3
Параметр Endianness формата : Big
Идентификатор кодека : A_AC3
Продолжительность : 1 ч. 44 м.
Вид битрейта : Постоянный
Битрейт : 448 Кбит/сек
Каналы : 6 каналов
Расположение каналов : Front: L C R, Side: L R, LFE
Частота : 48,0 КГц
Частота кадров : 31,250 кадров/сек (1536 SPF)
Битовая глубина : 16 бит
Метод сжатия : С потерями
Размер потока : 334 Мбайт (9%)
Заголовок : DUB.R5
Язык : Russian
ServiceKind/String : Complete Main
Default : Да
Forced : Нет

Аудио #2
Идентификатор : 3
Формат : AC-3
Формат/Информация : Audio Coding 3
Параметр Endianness формата : Big
Идентификатор кодека : A_AC3
Продолжительность : 1 ч. 44 м.
Вид битрейта : Постоянный
Битрейт : 448 Кбит/сек
Каналы : 6 каналов
Расположение каналов : Front: L C R, Side: L R, LFE
Частота : 48,0 КГц
Частота кадров : 31,250 кадров/сек (1536 SPF)
Битовая глубина : 16 бит
Метод сжатия : С потерями
Размер потока : 334 Мбайт (9%)
Заголовок : original
Язык : French
ServiceKind/String : Complete Main
Default : Нет
Forced : Нет

Текст #1
Идентификатор : 4
Формат : UTF-8
Идентификатор кодека : S_TEXT/UTF8
Идентификатор кодека/Информация : UTF-8 Plain Text
Продолжительность : 1 ч. 39 м.
Битрейт : 62 бит/сек
ElementCount : 883
Размер потока : 45,9 Кбайт (0%)
Заголовок : русские
Язык : Russian
Default : Нет
Forced : Нет

Текст #2
Идентификатор : 5
Формат : UTF-8
Идентификатор кодека : S_TEXT/UTF8
Идентификатор кодека/Информация : UTF-8 Plain Text
Продолжительность : 1 ч. 37 м.
Битрейт : 35 бит/сек
ElementCount : 889
Размер потока : 25,1 Кбайт (0%)
Заголовок : английские
Язык : English
Default : Нет
Forced : Нет

Меню
00:00:00.000 : :Chapter 01
00:10:32.673 : :Chapter 02
00:19:22.161 : :Chapter 03
00:28:44.431 : :Chapter 04
00:37:16.108 : :Chapter 05
00:44:44.264 : :Chapter 06
00:53:06.850 : :Chapter 07
01:02:48.347 : :Chapter 08
01:12:37.061 : :Chapter 09
01:20:07.344 : :Chapter 10
01:30:51.154 : :Chapter 11
01:40:14.383 : :Chapter 12
01:44:15.040 : :Chapter 13
pb.wtf



Скачать Неудачники через торрент http://s019.radikal.ru/i631/1710/b1/f9ecd8b2a9c5.jpg Скачать, смотреть онлайн Неудачники бесплантно в хорошем качестве О фильме: Базилю не везёт по жизни: то он чуть не погибает от шальной пули, то становится бездомным, то однажды с подобными ему ... 9.9 10 8
Info! Золотая раздача, скачанное не засчитывается.
Торрент: Зарегистрирован [2017-10-13 07:19] · скачан: 213 раз
Статус: √ проверено
Размер: 3.72 GB
Как cкачать? Как скачать Неудачники через торрент | UTorrent

% Раздел Тема Автор DL S | L
Фильмы 2009 [ 2.74 GB ] Неудачники / Micmacs a tire-larigot [2009 BDRip-AVC] DUB koenig Скачать
1 | 0
Фильмы [HD 720p, 1080p] (Хороший звук DUB, MVO) [ 10.41 GB ] Неудачники / Micmacs a tire-larigot [2009 BDRip 1080p by msltel] DUB msltel Скачать
1 | 0

28-11-2019 20:33  

Отключить всю рекламу на сайте

15-10-2017 20:01 Неудачники Скачать торрент  

отличный фильм . поржал. французы как всегда умеют фильмы снимать.pb.wtf



    Дорогой пользователь! Огромная просьба, поблагодарите релизера, оцените раздачу и оставьте свои комментарий, если Вы скачали Неудачники через торрент бесплатно!
    Комментировать посты могут только пользователи прошедшие не сложную регистрацию
    Показать сообщения:    

    Неудачники через торрент
    Скачать бесплатно Неудачники
    Неудачники скачать торрент
    Неудачники смотреть онлайн
    Cкачать фильм Неудачники бесплатно
    Неудачники скачать торрент в хорошем качестве
    Неудачники смотреть онлайн бесплатно в хорошем качестве


    Вы не можете начинать темы
    Вы не можете отвечать на сообщения
    Вы не можете редактировать свои сообщения
    Вы не можете удалять свои сообщения
    Вы не можете голосовать в опросах
    Вы не можете прикреплять файлы к сообщениям
    Вы можете скачивать файлы