новый адрес пиратбит piratbit
Мега распродажа FORZA HORIZON 4 ULTIMATE+ВСЕ DLC+ОНЛАЙН всего за 499р. 349 руб. (супер цена). Внимание количество ограничено!!!

iTunes

1+1

iTunes

мы

iTunes

1

iTunes

Чернобыль

iTunes

Ральф против интернета

Лицензия

ПШазам

Лицензия

Игра престолов

Лицензия

30
pack

ВАЖНО

!!Акция!!

Alien_RageХит недели

RePack

Resident Evil 21

ИГРА 18+

pack

RePack

Metro:Exodus

!!Акция!!

Alien_Rage

RePack

fifa19

RePack

Assassins Creed: Odyssey

RePack

NEED FOR SPEED™ PAYBACK

3 сезон

9 сезон

Бесстыжие 9 сезон

Все сериалы

все сериалы на PB.wtf

RePack

FAR CRY 5
Ребята, катастрофически не хватает 1900р. для оплаты серверов за Октябрь (всвязи с блокировками трафик упал в 3 раза), 1-2р., выручайте.
  

Олеко Дундич (Леонид Луков) [1958, СССР, Югославия, драма, военный, DVDRip от AVP Studio] pb.wtf

Олеко Дундич через торрент pb.wtf

Размер: 746 MB | Добавлен: 2 года назад | Торрент скачан:20 раз
Скачать  

13-10-2017 12:22 Олеко Дундич Скачать торрент  

Олеко Дундич
Страна: СССР
Производство: Киностудия им. М.Горького, "Авалафильм"

Жанр: драма, военный
Год выпуска: 1958
Продолжительность: 01:49:13

Перевод: Не требуется
Cубтитры: нет
Оригинальная аудиодорожка: русский

Режиссер: Леонид Луков

В ролях:
Бранко Плеша, Татьяна Пилецкая, Владимир Трошин, Лев Свердлин, Милан Пузич, Борис Ливанов, Сергей Лукьянов, Константин Сорокин, Татьяна Конюхова, Любивое Тадич, Драгомир Фельба, Стоян Аранджелович, Зоран Бендерич, Юрий Соловьёв, Виктор Старчич, Евгений Самойлов, Леонид Топчиев, Маргарита Шуйкина, Лариса Кронберг, Евгений Велихов, Сергей Филиппов...
Об актёрах подробней

Описание:
О подвигах героя гражданской войны серба Олеко Дундича, сражавшегося в рядах Первой конной армии.
1917 год. В тюрьме провинциального русского города ожидает суровый приговор офицер Сербского добровольческого корпуса Дундич. Он отпустил приговорённых к расстрелу за симпатии к революционным агитаторам четырёх солдат. Начавшаяся революция открыла двери тюрем и Дундич оказался на свободе.

Источник: DVD5 R5
Качество видео: DVDRip
Формат видео: AVI

Видео: 576x432 (4:3), 25 fps, XviD ~ 817 kbps avg, 0.131 bit/pixel
Аудио: 48 kHz, MP3 2.0, 128 kbps

Раздача от:
Общее
Полное имя : Oleko.Dundich.1958.DVDRip-745_[New-team]_by_AVP_Studio.avi
Формат : AVI
Формат/Информация : Audio Video Interleave
Размер файла : 746 Мбайт
Продолжительность : 1 ч. 49 м.
Общий поток : 955 Кбит/сек
Программа кодирования : VirtualDubMod 1.5.10.3 | www.virtualdub-fr.org || (build 2550/release)
Библиотека кодирования : VirtualDubMod build 2550/release

Видео
Идентификатор : 0
Формат : MPEG-4 Visual
Профиль формата : Advanced Simple@L5
Параметр BVOP формата : 1
Параметр QPel формата : Нет
Параметр GMC формата : Без точки перехода
Параметр матрицы формата : Выборочная
Идентификатор кодека : XVID
Идентификатор кодека/Подсказка : XviD
Продолжительность : 1 ч. 49 м.
Битрейт : 817 Кбит/сек
Ширина : 576 пикселей
Высота : 432 пикселя
Соотношение сторон : 4:3
Частота кадров : 25,000 кадров/сек
Цветовое пространство : YUV
Субдискретизация насыщенности : 4:2:0
Битовая глубина : 8 бит
Тип развёртки : Прогрессивная
Метод сжатия : С потерями
Бит/(Пиксели*Кадры) : 0.131
Размер потока : 638 Мбайт (86%)
Библиотека кодирования : XviD 73

Аудио
Идентификатор : 1
Формат : MPEG Audio
Версия формата : Version 1
Профиль формата : Layer 3
Идентификатор кодека : 55
Идентификатор кодека/Подсказка : MP3
Продолжительность : 1 ч. 49 м.
Вид битрейта : Постоянный
Битрейт : 128 Кбит/сек
Каналы : 2 канала
Частота : 48,0 КГц
Метод сжатия : С потерями
Размер потока : 100,0 Мбайт (13%)
Выравнивание : Соединение по промежуткам
Продолжительность промежутка : 40 мс. (1,00 видеокадр)
Время предзагрузки промежутка : 504 мс.
Библиотека кодирования : LAME3.99r
Настройки программы : -m s -V 4 -q 2 -lowpass 17 -b 128
pb.wtf



Скачать Олеко Дундич через торрент http://s018.radikal.ru/i506/1710/8d/e4bfac173157.png Скачать фильм Олеко Дундич через торрент бесплантно в хорошем качестве Описание:О подвигах героя гражданской войны серба Олеко Дундича, сражавшегося в рядах Первой конной армии.1917 год. В тюрьме ... 5 10 1
Info! Золотая раздача, скачанное не засчитывается.
Торрент: Зарегистрирован [2017-10-13 12:22] · скачан: 20 раз
Статус: √ проверено
Размер: 746 MB
Как cкачать? Как скачать Олеко Дундич через торрент | qTorrent

% Раздел Тема Автор DL S | L
Кино СССР [ 1.46 GB ] Олеко Дундич [1958 СССР Югославия военный DVDRip-AVC от AVP Studio] AVP Studio Скачать
1 | 1
Кино СССР [ 1.46 GB ] Олеко Дундич [1958 СССР Югославия военный DVDRip от AVP Studio] AVP Studio Скачать
1 | 0


>> Регистрируемся здесь <<






Отзывы и комментарии о схеме читаем и пишем здесь: ---> Отзывы и комментарии о схеме

Новые благодарочки в телеграм довольных пользователей:
скриншот   скриншот   скриншот   скриншот   скриншот
    Дорогой пользователь! Огромная просьба, поблагодарите релизера, оцените раздачу и оставьте свои комментарий, если Вы скачали Олеко Дундич через торрент бесплатно! Внесите свою лепту в развитие PiratBit!
    Комментировать посты могут только пользователи прошедшие не сложную регистрацию
    Показать сообщения:    

    Олеко Дундич через торрент
    Скачать бесплатно Олеко Дундич
    Олеко Дундич скачать торрент
    Олеко Дундич смотреть онлайн
    Cкачать фильм Олеко Дундич бесплатно
    Олеко Дундич скачать торрент в хорошем качестве
    Олеко Дундич смотреть онлайн бесплатно в хорошем качестве


    Вы не можете начинать темы
    Вы не можете отвечать на сообщения
    Вы не можете редактировать свои сообщения
    Вы не можете удалять свои сообщения
    Вы не можете голосовать в опросах
    Вы не можете прикреплять файлы к сообщениям
    Вы можете скачивать файлы