Мега распродажа FORZA HORIZON 4 ULTIMATE+ВСЕ DLC+ОНЛАЙН всего за 499р. 349 руб. (супер цена). Внимание количество ограничено!!!

iTunes

1+1

iTunes

мы

iTunes

1

1 сезон

Чернобыль

1 сезон

Ральф против интернета

Лицензия

ПШазам

8 сезон

Игра престолов

Лицензия

30
pack

ВАЖНО

!!Акция!!

Alien_RageХит недели

RePack

Resident Evil 21

ИГРА 18+

pack

RePack

Metro:Exodus

!!Акция!!

Alien_Rage

RePack

fifa19

RePack

Assassins Creed: Odyssey

RePack

NEED FOR SPEED™ PAYBACK

3 сезон

9 сезон

Бесстыжие 9 сезон

Все сериалы

все сериалы на PB.wtf

RePack

FAR CRY 5
Ребята, катастрофически не хватает 2730р. для оплаты серверов за ИЮНЬ (всвязи с блокировками трафик упал в 3 раза), 1-2р., выручайте.
  

Две пары на одном диване / Duos sur canape (Марк Камолетти) [1979 г., Комедия, DVDRip-AVC, Профессиональный (многоголосый)] от ExKinoRay pb.wtf

Две пары на одном диване через торрент pb.wtf

Размер: 1.99 GB | Добавлен: 1 год 9 мес. назад | Торрент скачан:16 раз
Скачать  

13-10-2017 14:04 Две пары на одном диване Скачать торрент  

Две пары на одном диване / Duos sur canape
Год выпуска: 1979
Страна: Франция
Жанр: Комедия
Продолжительность: 01:22:42
Перевод: Профессиональный (многоголосый)

Режиссер: Марк Камолетти

Премьера в мире: 7 ноября 1979

rating

В ролях: Жан Лефевр, Мишель Галабрю, Марина Влади, Бернар Менез, Лоррейн Бракко, Марко Перрен, Мишель Вокоре, Макс Монтавон, Кристиана Мюллер, Лорис Аззаро

Описание: Адвокат Бернар и стоматолог Жаклин, супружеская пара, которая живёт в браке двадцать лет. Их рабочие кабинеты находятся в квартире. Проблемы возникают тогда, когда супруги решают развестись. Никто из них не хочет переносить офис в другое место. С этого времени диван в квартире выполняет роль границы, а лента делит его на две равные части. Вскоре Бернар приводит в квартиру развязную манекенщицу, утверждая, что она будет его женой, а Жаклин - заурядного актёришку Робера Бертона…

Качество: DVDRip-AVC
Формат: MKV
Видео кодек: MPEG4
Аудио кодек: AC3
Видео: MPEG-4 AVC, 3000 Кбит/с, 650x572@924x572, 25 кадров/сек
Аудио#1: Русский (AC3, 2 ch, 192 Кбит/с, 48 КГц)
Аудио#2: Французский (AC3, 2 ch, 256 Кбит/с, 48 КГц)
Релиз от:







raw [info]: 650x572p 64:45 @ 25/1 fps (cfr)
x264 [info]: using SAR=64/45
x264 [info]: using cpu capabilities: MMX2 SSE2Fast LZCNT
x264 [info]: profile High, level 4.1
x264 [info]: frame I:762 Avg QP:17.65 size: 62226
x264 [info]: frame P:25582 Avg QP:20.26 size: 29932
x264 [info]: frame B:97724 Avg QP:22.29 size: 10724
x264 [info]: consecutive B-frames: 0.9% 1.4% 7.0% 21.8% 15.7% 48.5% 2.6% 1.1% 0.5% 0.1% 0.2% 0.0% 0.1% 0.0% 0.0% 0.0% 0.0%
-----
Общее
Уникальный идентификатор : 215620249276464087277567545810296719763 (0xA236F310738E160597B43E6948134993)
Полное имя : D:\Relizes\Duet.Na.Divane.1979.DVDRip-AVC.ExKinoRay.mkv
Формат : Matroska
Версия формата : Version 2
Размер файла : 1,99 Гбайт
Продолжительность : 1 ч. 22 м.
Общий поток : 3450 Кбит/сек
Дата кодирования : UTC 2017-10-13 01:32:34
Программа кодирования : mkvmerge v7.8.0 ('River Man') 32bit built on Apr 3 2015 12:11:22
Библиотека кодирования : libebml v1.3.1 + libmatroska v1.4.2

Видео
Идентификатор : 1
Формат : AVC
Формат/Информация : Advanced Video Codec
Профиль формата : High@L4.1
Параметр CABAC формата : Да
Параметр ReFrames формата : 14 кадров
Идентификатор кодека : V_MPEG4/ISO/AVC
Продолжительность : 1 ч. 22 м.
Битрейт : 3000 Кбит/сек
Ширина : 650 пикселей
Высота : 572 пикселя
Соотношение сторон : 16:10
Соотношение сторон в оригинале : 16:10
Режим частоты кадров : Постоянный
Частота кадров : 25,000 кадров/сек
Цветовое пространство : YUV
Субдискретизация насыщенности : 4:2:0
Битовая глубина : 8 бит
Тип развёртки : Прогрессивная
Бит/(Пиксели*Кадры) : 0.323
Размер потока : 1,69 Гбайт (85%)
Библиотека кодирования : x264 core 148 r2638 7599210
Настройки программы : cabac=1 / ref=14 / deblock=1:-2:-2 / analyse=0x3:0x133 / me=umh / subme=10 / psy=1 / psy_rd=1.05:0.15 / mixed_ref=1 / me_range=32 / chroma_me=1 / trellis=2 / 8x8dct=1 / cqm=0 / deadzone=21,11 / fast_pskip=0 / chroma_qp_offset=-3 / threads=4 / lookahead_threads=1 / sliced_threads=0 / nr=0 / decimate=0 / interlaced=0 / bluray_compat=0 / constrained_intra=0 / bframes=16 / b_pyramid=2 / b_adapt=2 / b_bias=0 / direct=3 / weightb=1 / open_gop=0 / weightp=2 / keyint=250 / keyint_min=25 / scenecut=40 / intra_refresh=0 / rc=2pass / mbtree=0 / bitrate=3000 / ratetol=1.0 / qcomp=0.60 / qpmin=0 / qpmax=69 / qpstep=4 / cplxblur=20.0 / qblur=0.5 / ip_ratio=1.40 / pb_ratio=1.30 / aq=1:1.00
Язык : English
Default : Да
Forced : Нет
Цветовой диапазон : Limited
Основные цвета : BT.601 NTSC
Характеристики трансфера : BT.601
Коэффициенты матрицы : BT.601

Аудио #1
Идентификатор : 2
Формат : AC-3
Формат/Информация : Audio Coding 3
Расширение режима : CM (complete main)
Параметр Endianness формата : Big
Идентификатор кодека : A_AC3
Продолжительность : 1 ч. 22 м.
Вид битрейта : Постоянный
Битрейт : 192 Кбит/сек
Каналы : 2 канала
Расположение каналов : Front: L R
Частота : 48,0 КГц
Частота кадров : 31,250 кадров/сек (1536 spf)
Метод сжатия : С потерями
Размер потока : 114 Мбайт (6%)
Язык : Russian
Default : Да
Forced : Нет

Аудио #2
Идентификатор : 3
Формат : AC-3
Формат/Информация : Audio Coding 3
Расширение режима : CM (complete main)
Параметр Endianness формата : Big
Идентификатор кодека : A_AC3
Продолжительность : 1 ч. 22 м.
Вид битрейта : Постоянный
Битрейт : 256 Кбит/сек
Каналы : 2 канала
Расположение каналов : Front: L R
Частота : 48,0 КГц
Частота кадров : 31,250 кадров/сек (1536 spf)
Метод сжатия : С потерями
Размер потока : 151 Мбайт (7%)
Язык : French
Default : Нет
Forced : Нет

pb.wtf



Скачать Две пары на одном диване через торрент http://i66.fastpic.ru/big/2014/1015/61/f33a64927f437a25954049dbc4fdcc61.jpg Скачать фильм Две пары на одном диване через торрент бесплантно в хорошем качестве Описание: Адвокат Бернар и стоматолог Жаклин, супружеская пара, которая живёт в браке двадцать лет. Их рабочие кабинеты находятся в ... 10 10 2
Info! Золотая раздача, скачанное не засчитывается.
Торрент: Зарегистрирован [2017-10-13 14:04] · скачан: 16 раз
Статус: √ проверено
Размер: 1.99 GB
Как cкачать? Как скачать Две пары на одном диване через торрент | qTorrent


>> Регистрируемся здесь <<






Отзывы и комментарии о схеме читаем и пишем здесь: ---> Отзывы и комментарии о схеме

Новые благодарочки в телеграм довольных пользователей:
скриншот   скриншот   скриншот   скриншот   скриншот

13-10-2017 14:06 Две пары на одном диване Скачать торрент  

Топик был перенесен из форума Оформление раздач (Кино, Видео и ТВ) в форум Фильмы до 2000 г.


schultzpb.wtf



    Дорогой пользователь! Огромная просьба, поблагодарите релизера, оцените раздачу и оставьте свои комментарий, если Вы скачали Две пары на одном диване через торрент бесплатно! Внесите свою лепту в развитие PiratBit!
    Комментировать посты могут только пользователи прошедшие не сложную регистрацию
    Показать сообщения:    

    Две пары на одном диване через торрент
    Скачать бесплатно Две пары на одном диване
    Две пары на одном диване скачать торрент
    Две пары на одном диване смотреть онлайн
    Cкачать фильм Две пары на одном диване бесплатно
    Две пары на одном диване скачать торрент в хорошем качестве
    Две пары на одном диване смотреть онлайн бесплатно в хорошем качестве


    Вы не можете начинать темы
    Вы не можете отвечать на сообщения
    Вы не можете редактировать свои сообщения
    Вы не можете удалять свои сообщения
    Вы не можете голосовать в опросах
    Вы не можете прикреплять файлы к сообщениям
    Вы можете скачивать файлы