Ссылка на приватное зеркало нашего сайта всего за 1$. Внимание количество ограничено!!!

2 сезон

iTunes

1 сезон

1

2 сезон

2 сезон

iTunes

1 сезон

RePack

30

Новинка

ВАЖНО

ИГРА 18+

pack

RePack

MK11
pack

Забери бонус

RePack

jed

!!Акция!!

Alien_Rage

RePack

fifa19

RePack

Assassins Creed: Odyssey

RePack

NEED FOR SPEED™ PAYBACK

4 сезон

9 сезон

Бесстыжие 9 сезон

Все сериалы

все сериалы на PB.wtf

RePack

FAR CRY 5
  

Хроники Шаннары / The Shannara Chronicles / Сезон 2 / Серии 1-10 из 10 (Брэд Тёрнер, Джонатан Либесман, Джеймс Маршалл) [2017, фантастика, фэнтези, приключения, WEBRip] MVO [BaibaKo] pb.wtf

Хроники Шаннары через торрент pb.wtf

Размер: 5.71 GB | Добавлен: 2 года 11 мес. назад | Торрент скачан:59 раз
Скачать  

13-10-2017 14:57 Хроники Шаннары Скачать торрент  

Хроники Шаннары / The Shannara ChroniclesГод выпуска: 2017
Жанр: фантастика, фэнтези, приключения
Продолжительность: ~ 00:43:00
Перевод: Профессиональный многоголосый BaibaKo
Субтитры: отсутствуют

Режиссер: Брэд Тёрнер, Джонатан Либесман, Джеймс Маршалл

rating

В ролях:

Остин Роберт Батлер, Поппи Дрейтон, Ивана Бакеро, Ману Беннетт, Аарон Якубенко, Эмилия Бёрнс, Джон Рис-Дэвис, Маркус Ванко, Брук Уильямс, Дэниэл МакФерсон

Описание:

События сериала происходят в далёком будущем. Войны разделили Северную Америку на 4 части. На какой-то из них обитают эльфы, на иной — люди, на третьей — тролли и на четвёртой — дворфы. Основными персонажами сериала окажутся отпрыски древнего рода эльфов — Шаннара. Именно от них будет зависеть будущая судьба планеты…

Качество: WEBRip
Формат: AVI
Видео кодек: XviD
Аудио кодек: MP3

Видео: ~ 1500 Кбит/с, 720x400
Аудио#1: Русский (MP3, 2 ch, 192 Кбит/с)
Аудио#2: аглийский (MP3, 2 ch, 192 Кбит/с)
скриншот   скриншот   скриншот  

Общее
Полное имя : D:\The.Shannara.Chronicles.s02.WEBRip.XviD.Rus.Eng.BaibaKo.tv\The.Shannara.Chronicles.s02e01.WEBRip.XviD.Rus.Eng.BaibaKo.tv.avi
Формат : AVI
Формат/Информация : Audio Video Interleave
Размер файла : 598 Мбайт
Продолжительность : 44 м. 16 с.
Общий поток : 1889 Кбит/сек

Видео
Идентификатор : 0
Формат : MPEG-4 Visual
Профиль формата : Advanced Simple@L5
Параметр BVOP формата : 2
Параметр QPel формата : Нет
Параметр GMC формата : Без точки перехода
Параметр матрицы формата : Default (H.263)
Идентификатор кодека : XVID
Идентификатор кодека/Подсказка : XviD
Продолжительность : 44 м. 16 с.
Битрейт : 1498 Кбит/сек
Ширина : 720 пикселей
Высота : 400 пикселей
Соотношение сторон : 16:9
Частота кадров : 23,976 кадра/сек
Цветовое пространство : YUV
Субдискретизация насыщенности : 4:2:0
Битовая глубина : 8 бит
Тип развёртки : Прогрессивная
Метод сжатия : С потерями
Бит/(Пиксели*Кадры) : 0.217
Размер потока : 474 Мбайт (79%)
Библиотека кодирования : XviD 67

Аудио #1
Идентификатор : 1
Формат : MPEG Audio
Версия формата : Version 1
Профиль формата : Layer 3
Режим : Joint stereo
Расширение режима : MS Stereo
Идентификатор кодека : 55
Идентификатор кодека/Подсказка : MP3
Продолжительность : 44 м. 16 с.
Вид битрейта : Постоянный
Битрейт : 192 Кбит/сек
Каналы : 2 канала
Частота : 48,0 КГц
Метод сжатия : С потерями
Размер потока : 60,8 Мбайт (10%)
Выравнивание : Соединение по промежуткам
Продолжительность промежутка : 167 мс. (4,00 видеокадра)
Время предзагрузки промежутка : 216 мс.
Заголовок : The.Shannara.Chronicles.s02e01.HD1080p.WEBRip.Rus.Eng.BaibaKo.tv - [1][0] Russian_audio
Библиотека кодирования : LAME3.99r
Настройки программы : -m j -V 4 -q 2 -lowpass 18.6 -b 192

Аудио #2
Идентификатор : 2
Формат : MPEG Audio
Версия формата : Version 1
Профиль формата : Layer 3
Режим : Joint stereo
Расширение режима : MS Stereo
Идентификатор кодека : 55
Идентификатор кодека/Подсказка : MP3
Продолжительность : 44 м. 16 с.
Вид битрейта : Постоянный
Битрейт : 192 Кбит/сек
Каналы : 2 канала
Частота : 48,0 КГц
Метод сжатия : С потерями
Размер потока : 60,8 Мбайт (10%)
Выравнивание : Соединение по промежуткам
Продолжительность промежутка : 167 мс. (4,00 видеокадра)
Время предзагрузки промежутка : 216 мс.
Заголовок : The.Shannara.Chronicles.s02e01.HD1080p.WEBRip.Rus.Eng.BaibaKo.tv - [2][1] English_audio
Библиотека кодирования : LAME3.99r
Настройки программы : -m j -V 4 -q 2 -lowpass 18.6 -b 192

Внимание! Раздача ведётся путём добавления новых серий; при каждом добавлении создётся новый торрент. Чтобы начать докачку новой серии, пользователям необходимо сделать следующее:
Остановить скачивание.
Удалить старый торрент у себя из клиента (старые серии удалять не надо).
Скачать новый торрент и запустить его у себя в клиенте вместо старого, при этом указать клиенту путь в старую папку куда и должно происходить скачивание новых серий.
Ваш клиент при этом должен произвести хеширование (проверку) старой папки (если не производит сам - помогите ему сделать это), и будет докачивать только те серии которых у вас ещё нет. Старые серии при этом не удаляются, а продолжают раздаваться!
Eсли вы уже удалили старые серии, то предотвратить повторную закачку старых серий можно, отжав галочку в соответсвующих местах при запуске нового торрента. По возможности, желательно не удалять старые серии как можно дольше чтобы релизёр не столько продолжал раздавать старые серии, а смог сконцентрироваться на новых.
pb.wtf



Скачать Хроники Шаннары через торрент http://i96.fastpic.ru/big/2017/1012/84/c050c8bf6bd68b7c832c17a633e6aa84.jpg Скачать фильм Хроники Шаннары через торрент бесплантно в хорошем качестве Описание: События сериала происходят в далёком будущем. Войны разделили Северную Америку на 4 части. На какой-то из них обитают эльфы, на ... 9.7 10 11
Торрент: Зарегистрирован [2017-12-02 22:12] · скачан: 59 раз
Статус: √ проверено
Размер: 5.71 GB
Как cкачать? Как скачать Хроники Шаннары через торрент | qTorrent

% Раздел Тема Автор DL S | L
Зарубежные сериалы [ 11.66 GB ] Хроники Шаннары / The Shannara Chronicles / Сезон: 2 / Серии: 1-10 из 10 [2017 WEBRip 720p] MVO [Jaskier] bober100 Скачать
1 | 0
Зарубежные сериалы [ 5.37 GB ] Хроники Шаннары / The Shannara Chronicles / Сезон 2 / Серии 1-10 из 10 [2017 WEB-DLRip] MVO [NewStudio] bober100 Скачать
1 | 0
Зарубежные сериалы [ 4.96 GB ] Хроники Шаннары / The Shannara Chronicles / Сезон 2 / Серии 1-10 из 10 [2017 WEB-DLRip] MVO [LostFilm] от qqss44 Russian Mafia Скачать
1 | 0
Зарубежные сериалы [ 5.37 GB ] Хроники Шаннары / The Shannara Chronicles / Сезон 2 / Серии 1-10 из 10 [2017 WEBRip] MVO [Jaskier] bober100 Скачать
1 | 0
Зарубежные сериалы [ 11.15 GB ] Хроники Шаннары / The Shannara Chronicles / Сезон 2 / Серии 1-10 из 10 [2017 WEB-DL 720p] MVO [Alexfilm] bober100 Скачать
1 | 0
Зарубежные сериалы [ 30.3 GB ] Хроники Шаннары / The Shannara Chronicles / Сезон 2 / Серии 1-10 из 10 [2017 WEBRip 1080p] MVO [Jaskier] bober100 Скачать
1 | 0
Зарубежные сериалы [ 5.03 GB ] Хроники Шаннары / The Shannara Chronicles / Сезон 2 / Серии 1-10 из 10 [2017 WEB-DLRip] MVO [AlexFilm] bober100 Скачать
1 | 1


Последний раз редактировалось: bober100 (2017-12-02 22:12), всего редактировалось 4 раз(а)

28-11-2019 20:33  

Отключить всю рекламу на сайте

28-10-2017 00:57 Хроники Шаннары Скачать торрент  

Очень достойный сериал в своем жанре + красивые артисты. Приятно смотреть.pb.wtf



    Дорогой пользователь! Огромная просьба, поблагодарите релизера, оцените раздачу и оставьте свои комментарий, если Вы скачали Хроники Шаннары через торрент бесплатно! Внесите свою лепту в развитие PiratBit!
    Комментировать посты могут только пользователи прошедшие не сложную регистрацию
    Показать сообщения:    

    Хроники Шаннары через торрент
    Скачать бесплатно Хроники Шаннары
    Хроники Шаннары скачать торрент
    Хроники Шаннары смотреть онлайн
    Cкачать фильм Хроники Шаннары бесплатно
    Хроники Шаннары скачать торрент в хорошем качестве
    Хроники Шаннары смотреть онлайн бесплатно в хорошем качестве


    Вы не можете начинать темы
    Вы не можете отвечать на сообщения
    Вы не можете редактировать свои сообщения
    Вы не можете удалять свои сообщения
    Вы не можете голосовать в опросах
    Вы не можете прикреплять файлы к сообщениям
    Вы можете скачивать файлы