Ссылка на приватное зеркало нашего сайта всего за 1$. Внимание количество ограничено!!!

2 сезон

iTunes

1 сезон

1

iTunes

iTunes

iTunes

1 сезон

RePack

30

ИГРА 18+

pack

ВАЖНО

!!Акция!!

Alien_RageХит недели

RePack

MK11
pack

Забери бонус

RePack

jed

!!Акция!!

Alien_Rage

RePack

fifa19

RePack

Assassins Creed: Odyssey

RePack

NEED FOR SPEED™ PAYBACK

4 сезон

9 сезон

Бесстыжие 9 сезон

Все сериалы

все сериалы на PB.wtf

RePack

FAR CRY 5
  

Смертный приговор / Death Sentence (Джеймс Ван) [2007, боевик, триллер, криминал, BDRip 720p by msltel] 2 x MVO, DVO, AVO pb.wtf

Смертный приговор через торрент pb.wtf

Размер: 4.77 GB | Добавлен: 3 года назад | Торрент скачан:198 раз
Скачать  

14-10-2017 06:29 Смертный приговор Скачать торрент  

Название: Смертный приговор
Оригинальное название: Death Sentence
Год выпуска: 2007
Страна: США
Жанр: боевик, триллер, криминал
Продолжительность: 01:45:30
Перевод: профессиональный многоголосый, профессиональный двухголосый, авторский

Режиссер: Джеймс Ван
В ролях: Кевин Бэйкон, Келли Престон, Джордан Гаррет, Стюарт Лэфферти, Гаррет Хедлунд, Аиша Тайлер, Джон Гудмен, Мэтт О`Лири, Эди Гатеги, Гектор Руис

О фильме: Ник - менеджер крупной компании, обходительный и вежливый человек с репутацией отличного семьянина. Его жизнь была прекрасна до тех пор, пока однажды он не стал свидетелем того, что полностью и бесповоротно сделало его иным. Поселившаяся в нём ярость приводит его к твёрдой уверенности, что для защиты семьи он не остановится ни перед чем... Фильм снят по мотивам романа Брайана Гарфилда «Смертный приговор» (Death Sentence, 1975).



Качество: BDRip 720p
Формат: MKV
Видео: MPEG-4 AVC, 4489 Kбит/с, 1280x532, 23.976 кадр/с
Аудио 1: русский, AC3, 448 kbps, 6 ch [профессиональный многоголосый, Киномания]
Аудио 2: русский, AC3, 192 kbps, 2 ch [профессиональный многоголосый, РТР]
Аудио 3: русский, AC3, 448 kbps, 6 ch [профессиональный двухголосый, Пётр Гланц и Инна Королёва]
Аудио 4: русский, AC3, 448 kbps, 6 ch [авторский, Юрий Немахов]
Аудио 5: английский, AC3, 448 kbps, 6 ch, 48 kHz [оригинал]
Субтитры: русские
Имеются неименованные главы/чаптеры.
Общее
Уникальный идентификатор : 237177486930509873228794190536863110999 (0xB26EB8F09BD6DF5EAE3708069363D757)
Полное имя : D:\Video\Смертный приговор.2007.BDRip.720p by msltel.mkv
Формат : Matroska
Версия формата : Version 4 / Version 2
Размер файла : 4,77 Гбайт
Продолжительность : 1 ч. 45 м.
Общий поток : 6476 Кбит/сек
Название фильма : Rip by msltel
Дата кодирования : UTC 2017-10-13 11:43:42
Программа кодирования : mkvmerge v8.2.0 ('World of Adventure') 64bit
Библиотека кодирования : libebml v1.3.1 + libmatroska v1.4.2

Видео
Идентификатор : 1
Формат : AVC
Формат/Информация : Advanced Video Codec
Профиль формата : High@L4.1
Параметр CABAC формата : Да
Параметр RefFrames формата : 9 кадров
Идентификатор кодека : V_MPEG4/ISO/AVC
Продолжительность : 1 ч. 45 м.
Битрейт : 4489 Кбит/сек
Ширина : 1280 пикселей
Высота : 532 пикселя
Соотношение сторон : 2,40:1
Режим частоты кадров : Постоянный
Частота кадров : 23,976 (24000/1001) кадра/сек
Цветовое пространство : YUV
Субдискретизация насыщенности : 4:2:0
Битовая глубина : 8 бит
Тип развёртки : Прогрессивная
Бит/(Пиксели*Кадры) : 0.275
Размер потока : 3,31 Гбайт (69%)
Библиотека кодирования : x264 core 146 r2538 121396c
Настройки программы : cabac=1 / ref=9 / deblock=1:-3:-2 / analyse=0x3:0x113 / me=umh / subme=11 / psy=1 / psy_rd=1.00:0.15 / mixed_ref=1 / me_range=32 / chroma_me=1 / trellis=2 / 8x8dct=1 / cqm=0 / deadzone=21,11 / fast_pskip=0 / chroma_qp_offset=-3 / threads=6 / lookahead_threads=1 / sliced_threads=0 / nr=0 / decimate=1 / interlaced=0 / bluray_compat=0 / constrained_intra=0 / bframes=7 / b_pyramid=2 / b_adapt=2 / b_bias=0 / direct=1 / weightb=1 / open_gop=0 / weightp=2 / keyint=230 / keyint_min=23 / scenecut=40 / intra_refresh=0 / rc_lookahead=40 / rc=crf / mbtree=0 / crf=19.7 / qcomp=0.60 / qpmin=0 / qpmax=69 / qpstep=4 / vbv_maxrate=62500 / vbv_bufsize=78125 / crf_max=0.0 / nal_hrd=none / filler=0 / ip_ratio=1.40 / pb_ratio=1.30 / aq=1:1.00
Язык : English
Default : Да
Forced : Нет

Аудио #1
Идентификатор : 2
Формат : AC-3
Формат/Информация : Audio Coding 3
Параметр Endianness формата : Big
Идентификатор кодека : A_AC3
Продолжительность : 1 ч. 45 м.
Вид битрейта : Постоянный
Битрейт : 448 Кбит/сек
Каналы : 6 каналов
Расположение каналов : Front: L C R, Side: L R, LFE
Частота : 48,0 КГц
Частота кадров : 31,250 кадров/сек (1536 SPF)
Битовая глубина : 16 бит
Метод сжатия : С потерями
Размер потока : 338 Мбайт (7%)
Заголовок : MVO Киномания
Язык : Russian
ServiceKind/String : Complete Main
Default : Да
Forced : Нет

Аудио #2
Идентификатор : 3
Формат : AC-3
Формат/Информация : Audio Coding 3
Параметр Endianness формата : Big
Идентификатор кодека : A_AC3
Продолжительность : 1 ч. 45 м.
Вид битрейта : Постоянный
Битрейт : 192 Кбит/сек
Каналы : 2 канала
Расположение каналов : Front: L R
Частота : 48,0 КГц
Частота кадров : 31,250 кадров/сек (1536 SPF)
Битовая глубина : 16 бит
Метод сжатия : С потерями
Размер потока : 145 Мбайт (3%)
Заголовок : MVO PTP
Язык : Russian
ServiceKind/String : Complete Main
Default : Нет
Forced : Нет

Аудио #3
Идентификатор : 4
Формат : AC-3
Формат/Информация : Audio Coding 3
Параметр Endianness формата : Big
Идентификатор кодека : A_AC3
Продолжительность : 1 ч. 45 м.
Вид битрейта : Постоянный
Битрейт : 448 Кбит/сек
Каналы : 6 каналов
Расположение каналов : Front: L C R, Side: L R, LFE
Частота : 48,0 КГц
Частота кадров : 31,250 кадров/сек (1536 SPF)
Битовая глубина : 16 бит
Метод сжатия : С потерями
Размер потока : 338 Мбайт (7%)
Заголовок : DVO Пётр Гланц и Инна Королёва
Язык : Russian
ServiceKind/String : Complete Main
Default : Нет
Forced : Нет

Аудио #4
Идентификатор : 5
Формат : AC-3
Формат/Информация : Audio Coding 3
Параметр Endianness формата : Big
Идентификатор кодека : A_AC3
Продолжительность : 1 ч. 45 м.
Вид битрейта : Постоянный
Битрейт : 448 Кбит/сек
Каналы : 6 каналов
Расположение каналов : Front: L C R, Side: L R, LFE
Частота : 48,0 КГц
Частота кадров : 31,250 кадров/сек (1536 SPF)
Битовая глубина : 16 бит
Метод сжатия : С потерями
Размер потока : 338 Мбайт (7%)
Заголовок : Юрий Немахов
Язык : Russian
ServiceKind/String : Complete Main
Default : Нет
Forced : Нет

Аудио #5
Идентификатор : 6
Формат : AC-3
Формат/Информация : Audio Coding 3
Параметр Endianness формата : Big
Идентификатор кодека : A_AC3
Продолжительность : 1 ч. 45 м.
Вид битрейта : Постоянный
Битрейт : 448 Кбит/сек
Каналы : 6 каналов
Расположение каналов : Front: L C R, Side: L R, LFE
Частота : 48,0 КГц
Частота кадров : 31,250 кадров/сек (1536 SPF)
Битовая глубина : 16 бит
Метод сжатия : С потерями
Размер потока : 338 Мбайт (7%)
Заголовок : original
Язык : English
ServiceKind/String : Complete Main
Default : Нет
Forced : Нет

Текст
Идентификатор : 7
Формат : UTF-8
Идентификатор кодека : S_TEXT/UTF8
Идентификатор кодека/Информация : UTF-8 Plain Text
Продолжительность : 1 ч. 39 м.
Битрейт : 50 бит/сек
ElementCount : 845
Размер потока : 36,8 Кбайт (0%)
Заголовок : русские
Язык : Russian
Default : Нет
Forced : Нет

Меню
00:00:00.000 : :Chapter 01
00:07:41.544 : :Chapter 02
00:13:37.983 : :Chapter 03
00:22:00.694 : :Chapter 04
00:30:44.384 : :Chapter 05
00:40:19.708 : :Chapter 06
00:51:01.349 : :Chapter 07
00:58:56.449 : :Chapter 08
01:08:30.689 : :Chapter 09
01:15:13.967 : :Chapter 10
01:23:28.545 : :Chapter 11
01:30:01.437 : :Chapter 12
01:40:38.157 : :Chapter 13
01:45:28.905 : :Chapter 14
pb.wtf



Скачать Смертный приговор через торрент http://s019.radikal.ru/i625/1710/88/9afbb971c20e.jpg Скачать фильм Смертный приговор через торрент бесплантно в хорошем качестве О фильме: Ник - менеджер крупной компании, обходительный и вежливый человек с репутацией отличного семьянина. Его жизнь была прекрасна до ... 7.8 10 4
Info! Золотая раздача, скачанное не засчитывается.
Торрент: Зарегистрирован [2017-10-14 06:29] · скачан: 198 раз
Статус: √ проверено
Размер: 4.77 GB
Как cкачать? Как скачать Смертный приговор через торрент | qTorrent

% Раздел Тема Автор DL S | L
Фильмы [HD 720p, 1080p] (Хороший звук DUB, MVO) [ 12.67 GB ] Смертный приговор / Death Sentence [2007 BDRip 1080p by msltel] 2 x MVO DVO AVO msltel Скачать
1 | 0

28-11-2019 20:33  

Отключить всю рекламу на сайте

15-10-2017 06:24 Смертный приговор Скачать торрент  

фильм не помню.актер замечательный.забираем.спасибо.pb.wtf



16-10-2017 15:57 Смертный приговор Скачать торрент  

Фильм отличныйpb.wtf



    Дорогой пользователь! Огромная просьба, поблагодарите релизера, оцените раздачу и оставьте свои комментарий, если Вы скачали Смертный приговор через торрент бесплатно! Внесите свою лепту в развитие PiratBit!
    Комментировать посты могут только пользователи прошедшие не сложную регистрацию
    Показать сообщения:    

    Смертный приговор через торрент
    Скачать бесплатно Смертный приговор
    Смертный приговор скачать торрент
    Смертный приговор смотреть онлайн
    Cкачать фильм Смертный приговор бесплатно
    Смертный приговор скачать торрент в хорошем качестве
    Смертный приговор смотреть онлайн бесплатно в хорошем качестве


    Вы не можете начинать темы
    Вы не можете отвечать на сообщения
    Вы не можете редактировать свои сообщения
    Вы не можете удалять свои сообщения
    Вы не можете голосовать в опросах
    Вы не можете прикреплять файлы к сообщениям
    Вы можете скачивать файлы