Ссылка на приватное зеркало всего за 1$. Внимание количество ограничено!!!

iTunes

iTunes

iTunes

1

iTunes

iTunes

iTunes

iTunes

iTunes

30
pack

$ от Little Big

ВАЖНО

!!Акция!!

Alien_RageХит недели

RePack

Resident Evil 21

ИГРА 18+

pack

RePack

jed

!!Акция!!

Alien_Rage

RePack

fifa19

RePack

Assassins Creed: Odyssey

RePack

NEED FOR SPEED™ PAYBACK

4 сезон

9 сезон

Бесстыжие 9 сезон

Все сериалы

все сериалы на PB.wtf

RePack

FAR CRY 5
  

Игра Джеральда / Gerald's Game (Майк Флэнеган) [2017, ужасы, триллер, WEBRip 1080p, MVO | FocusStudio] pb.wtf

Игра Джеральда через торрент pb.wtf

Размер: 2.88 GB | Добавлен: 2 года 8 мес. назад | Торрент скачан:601 раз
Скачать  

14-10-2017 08:31 Игра Джеральда Скачать торрент  

Игра Джеральда / Gerald's Game

Год выпуска: 2017
Страна: США
Жанр: ужасы, триллер

Продолжительность: 01:43:24
Перевод: Профессиональный многоголосый (FocusStudio)
Субтитры: английские
Режиссер: Майк Флэнеган
В ролях:
Карла Гуджино (Jessie Burlingame), Брюс Гринвуд (Gerald Burlingame), Генри Томас (Tom), Карел Стрёйкен (Moonlight Man), Кейт Сигел (Sally), Кьяра Аурелия (Young Jessie), Натали Роерс (Reporter #1), Гвендолин Муламба (Judge McGarnagle), Джон Артур (Mobile Police Officer), Tom Glynn (DOC Prisoner), Кимберли Баттиста (Prosecutor), Stu Cookson (Defense)
Описание:
После того, как ее муж падает с сердечным приступом в разгаре интимной игры, молодая женщина остается прикованной к кровати. Но ее одиночество будет недолгим. Все страхи, которые она когда-либо испытывала в жизни, вернутся в одночасье в уединенный дом, мгновенно превратившийся в зловещую камеру пыток.
Рейтинг:

Качество: WEBRip 1080p
Формат: MKV
Видео: AVC, 1920x804 (2.40:1), 3335 kbps, 23,976 fps, 0,090 bpp
Аудио №1: русский / AC3 / 2.0 / 48 kHz / 192 kbps / ||
Аудио №2: английский / AC3 / 5.1 / 48 kHz / 384 kbps /
General
Unique ID : 190862123324572933502207471844417539215 (0x8F96B5360D37C003AEE0C61BCA9F0C8F)
Complete name : Geralds.Game.2017.1080p.mkv
Format : Matroska
Format version : Version 2
File size : 2.88 GiB
Duration : 1 h 43 min
Overall bit rate : 3 991 kb/s
Encoded date : UTC 2017-10-13 09:47:51
Writing application : mkvmerge v5.4.0 ('Piper') built on Mar 10 2012 13:34:39
Writing library : libebml v1.2.3 + libmatroska v1.3.0

Video
ID : 1
Format : AVC
Format/Info : Advanced Video Codec
Format profile : High@L4.1
Format settings, CABAC : Yes
Format settings, ReFrames : 5 frames
Codec ID : V_MPEG4/ISO/AVC
Duration : 1 h 43 min
Bit rate : 3 335 kb/s
Width : 1 920 pixels
Height : 804 pixels
Display aspect ratio : 2.40:1
Frame rate mode : Constant
Frame rate : 23.976 (24000/1001) FPS
Color space : YUV
Chroma subsampling : 4:2:0
Bit depth : 8 bits
Scan type : Progressive
Bits/(Pixel*Frame) : 0.090
Stream size : 2.41 GiB (84%)
Title : Gerald's Game (2017) WEBRip
Writing library : x264 core 152 r2851 ba24899
Encoding settings : cabac=1 / ref=5 / deblock=1:-3:-3 / analyse=0x3:0x113 / me=umh / subme=8 / psy=1 / psy_rd=1.00:0.15 / mixed_ref=1 / me_range=16 / chroma_me=1 / trellis=2 / 8x8dct=1 / cqm=0 / deadzone=21,11 / fast_pskip=0 / chroma_qp_offset=-2 / threads=12 / lookahead_threads=2 / sliced_threads=0 / nr=0 / decimate=1 / interlaced=0 / bluray_compat=0 / constrained_intra=0 / bframes=3 / b_pyramid=2 / b_adapt=1 / b_bias=0 / direct=3 / weightb=1 / open_gop=0 / weightp=2 / keyint=240 / keyint_min=23 / scenecut=40 / intra_refresh=0 / rc_lookahead=50 / rc=crf / mbtree=1 / crf=17.0 / qcomp=0.60 / qpmin=0 / qpmax=69 / qpstep=4 / ip_ratio=1.40 / aq=3:0.80
Language : English
Default : Yes
Forced : No

Audio #1
ID : 2
Format : AC-3
Format/Info : Audio Coding 3
Mode extension : CM (complete main)
Format settings, Endianness : Big
Codec ID : A_AC3
Duration : 1 h 43 min
Bit rate mode : Constant
Bit rate : 192 kb/s
Channel(s) : 2 channels
Channel positions : Front: L R
Sampling rate : 48.0 kHz
Frame rate : 31.250 FPS (1536 spf)
Compression mode : Lossy
Stream size : 142 MiB (5%)
Title : FocusStudio
Language : Russian
Default : Yes
Forced : No

Audio #2
ID : 3
Format : AC-3
Format/Info : Audio Coding 3
Mode extension : CM (complete main)
Format settings, Endianness : Big
Codec ID : A_AC3
Duration : 1 h 43 min
Bit rate mode : Constant
Bit rate : 384 kb/s
Channel(s) : 6 channels
Channel positions : Front: L C R, Side: L R, LFE
Sampling rate : 48.0 kHz
Frame rate : 31.250 FPS (1536 spf)
Compression mode : Lossy
Stream size : 284 MiB (10%)
Language : English
Default : No
Forced : No

Text
ID : 4
Format : UTF-8
Codec ID : S_TEXT/UTF8
Codec ID/Info : UTF-8 Plain Text
Language : English
Default : No
Forced : No
pb.wtf



Скачать Игра Джеральда через торрент http://i3.imageban.ru/out/2017/10/14/4d4cb5d126bdcbd4df5317f372c2b81b.jpg Скачать фильм Игра Джеральда через торрент бесплантно в хорошем качестве Описание: После того, как ее муж падает с сердечным приступом в разгаре интимной игры, молодая женщина остается прикованной к кровати. Но ... 8.7 10 14
Info! Золотая раздача, скачанное не засчитывается.
Торрент: Зарегистрирован [2017-10-14 08:31] · скачан: 601 раз
Статус: T временная
Размер: 2.88 GB
Как cкачать? Как скачать Игра Джеральда через торрент | qTorrent

28-11-2019 20:33  

Отключить всю рекламу на сайте

14-10-2017 08:32 Игра Джеральда Скачать торрент  

Без рекламы! ПРИСУТСТВУЕТ НЕНОРМАТИВНАЯ ЛЕКСИКА Сэмплpb.wtf



14-10-2017 12:37 Игра Джеральда Скачать торрент  

Flash77 писал(а):

Без рекламы! ПРИСУТСТВУЕТ НЕНОРМАТИВНАЯ ЛЕКСИКА Сэмпл

откуда ? на их сайте не нашел pb.wtf



14-10-2017 13:22 Игра Джеральда Скачать торрент  

killermax2013, и не найдешь. я вчера с онлайн кинотеатра звук выдернул и к вебу с рара прилепил pb.wtf



14-10-2017 13:46 Игра Джеральда Скачать торрент  

PROCTOLOG писал(а):

killermax2013, и не найдешь. я вчера с онлайн кинотеатра звук выдернул и к вебу с рара прилепил

рад за вас pb.wtf



14-10-2017 17:19 Игра Джеральда Скачать торрент  

тяжелый фильмец.час сорок наблюдать диалоги двух-трех людей в одной комнате не каждый выдержит.pb.wtf



16-10-2017 15:31 Игра Джеральда Скачать торрент  

Топик был перенесен из форума Фильмы 2017 [DVDrip, WEB-DLRip, HDrip] (DUB, MVO) в форум Фильмы (WEB-DL 720p, 1080p)


schultzpb.wtf



16-10-2017 17:18 Игра Джеральда Скачать торрент  

SASHA66 писал(а):

тяжелый фильмец.час сорок наблюдать диалоги двух-трех людей в одной комнате не каждый выдержит.

Как только (типа дух)появился,удалил к еменям pb.wtf



18-10-2017 19:48 Игра Джеральда Скачать торрент  

озвучка хорошая но вот сам фильм pb.wtf



    Дорогой пользователь! Огромная просьба, поблагодарите релизера, оцените раздачу и оставьте свои комментарий, если Вы скачали Игра Джеральда через торрент бесплатно! Внесите свою лепту в развитие PiratBit!
    Комментировать посты могут только пользователи прошедшие не сложную регистрацию
    Показать сообщения:    

    Игра Джеральда через торрент
    Скачать бесплатно Игра Джеральда
    Игра Джеральда скачать торрент
    Игра Джеральда смотреть онлайн
    Cкачать фильм Игра Джеральда бесплатно
    Игра Джеральда скачать торрент в хорошем качестве
    Игра Джеральда смотреть онлайн бесплатно в хорошем качестве


    Вы не можете начинать темы
    Вы не можете отвечать на сообщения
    Вы не можете редактировать свои сообщения
    Вы не можете удалять свои сообщения
    Вы не можете голосовать в опросах
    Вы не можете прикреплять файлы к сообщениям
    Вы можете скачивать файлы