Ссылка на приватное зеркало всего за 1$. Внимание количество ограничено!!!

iTunes

iTunes

iTunes

1

iTunes

iTunes

iTunes

iTunes

iTunes

30
pack

$ от Little Big

ВАЖНО

!!Акция!!

Alien_RageХит недели

RePack

Resident Evil 21

ИГРА 18+

pack

RePack

jed

!!Акция!!

Alien_Rage

RePack

fifa19

RePack

Assassins Creed: Odyssey

RePack

NEED FOR SPEED™ PAYBACK

4 сезон

9 сезон

Бесстыжие 9 сезон

Все сериалы

все сериалы на PB.wtf

RePack

FAR CRY 5
  

Женщины-убийцы / Women Who Kill (Ингрид Жундерменн) [2016, Триллер, мелодрама, комедия, криминал, детектив, WEB-DL 1080р] [MVO] [Студия "Paradox" & Omskbird records] pb.wtf

Женщины-убийцы через торрент pb.wtf

Размер: 3.45 GB | Добавлен: 2 года 8 мес. назад | Торрент скачан:56 раз
Скачать  

14-10-2017 09:03 Женщины-убийцы Скачать торрент  

Женщины-убийцы / Women Who Kill
Год выпуска: 2016
Страна: США
Жанр: Триллер, мелодрама, комедия, криминал, детектив
Продолжительность: 01:30:46
Перевод: Любительский многоголосый закадровый (Студия "Paradox" & Omskbird records)
Субтитры: Английские
Реклама Нет

Режиссер: Ингрид Жундерменн

В ролях: Ингрид Жундерменн, Энн Карр, Шейла Ванд, Аннетт О`Тул, Дебора Раш, Тами Сэгер, Грэйс Рекс, Шеннон О’Нил, Теренс Нэнс, Родриго Лопрести

Описание:
Когда-то бывшие парой Морган и Джин всё ещё живут вместе и ведут подкаст «Женщины-убийцы» — передачу о серийных убийцах. На работе в магазине-ферме органических продуктов Морган встречает таинственную Симон, и между ними сразу возникает притяжение. Женщины начинают встречаться, и это совсем не нравится Джин, она проводит расследование и выясняет интересные факты из прошлого Симон.

rating

Качество: WEB-DLRip
Формат: MKV
Видео: AVC, 1912x796 (2.40:1), 23.976 fps, 4 560 Kbps (0.125 bit/pixel)
Аудио #1: AC-3, 48.0 KHz, 2 ch, 384 Kbps, CBR | Русский
Аудио #2: AC-3, 48.0 KHz, 6 ch, 384 Kbps, CBR | Английский
Общее
Уникальный идентификатор : 221833783726383314237444807862111822084 (0xA6E3A1F706219CAEA15A0F7B6D4DE104)
Полное имя : D:\Женщины-убийцы\Women Who Kill 2016 WEB-DL 1080p-LQ.mkv
Формат : Matroska
Версия формата : Version 4 / Version 2
Размер файла : 3,45 Гбайт
Продолжительность : 1 ч. 30 м.
Общий поток : 5436 Кбит/сек
Программа кодирования : mkvmerge v6.9.1 ('Blue Panther') 32bit built on Apr 18 2014 18:15:44
Библиотека кодирования : libebml v1.3.0 + libmatroska v1.4.1

Видео
Идентификатор : 1
Формат : AVC
Формат/Информация : Advanced Video Codec
Профиль формата : High@L4
Параметр CABAC формата : Да
Параметр ReFrames формата : 5 кадров
Идентификатор кодека : V_MPEG4/ISO/AVC
Продолжительность : 1 ч. 30 м.
Битрейт : 4560 Кбит/сек
Ширина : 1912 пикселей
Высота : 796 пикселей
Соотношение сторон : 2,40:1
Режим частоты кадров : Постоянный
Частота кадров : 23,976 (24000/1001) кадра/сек
Цветовое пространство : YUV
Субдискретизация насыщенности : 4:2:0
Битовая глубина : 8 бит
Тип развёртки : Прогрессивная
Бит/(Пиксели*Кадры) : 0.125
Размер потока : 2,89 Гбайт (84%)
Язык : English
Default : Да
Forced : Нет

Аудио #1
Идентификатор : 2
Формат : AC-3
Формат/Информация : Audio Coding 3
Расширение режима : CM (complete main)
Параметр Endianness формата : Big
Идентификатор кодека : A_AC3
Продолжительность : 1 ч. 30 м.
Вид битрейта : Постоянный
Битрейт : 384 Кбит/сек
Каналы : 2 канала
Расположение каналов : Front: L R
Частота : 48,0 КГц
Частота кадров : 31,250 кадров/сек (1536 spf)
Битовая глубина : 16 бит
Метод сжатия : С потерями
Задержка видео : 28 мс.
Размер потока : 249 Мбайт (7%)
Язык : Russian
Default : Да
Forced : Да

Аудио #2
Идентификатор : 3
Формат : AC-3
Формат/Информация : Audio Coding 3
Расширение режима : CM (complete main)
Параметр Endianness формата : Big
Идентификатор кодека : A_AC3
Продолжительность : 1 ч. 30 м.
Вид битрейта : Постоянный
Битрейт : 384 Кбит/сек
Каналы : 6 каналов
Расположение каналов : Front: L C R, Side: L R, LFE
Частота : 48,0 КГц
Частота кадров : 31,250 кадров/сек (1536 spf)
Битовая глубина : 16 бит
Метод сжатия : С потерями
Задержка видео : 28 мс.
Размер потока : 249 Мбайт (7%)
Язык : English
Default : Нет
Forced : Нет

Текст
Идентификатор : 4
Формат : UTF-8
Идентификатор кодека : S_TEXT/UTF8
Идентификатор кодека/Информация : UTF-8 Plain Text
Язык : English
Default : Да
Forced : Нет

Меню
00:00:00.000 : en:1
00:01:11.252 : en:2
00:11:50.252 : en:3
00:21:14.252 : en:4
00:30:53.252 : en:5
00:40:07.252 : en:6
00:49:54.252 : en:7
01:00:33.252 : en:8
01:12:30.252 : en:9
01:19:42.252 : en:10
01:25:52.252 : en:11
Скриншоты: pb.wtf



Скачать Женщины-убийцы через торрент http://s019.radikal.ru/i636/1710/1b/6cbcbcf1d386.jpg Скачать фильм Женщины-убийцы через торрент бесплантно в хорошем качестве Описание:Когда-то бывшие парой Морган и Джин всё ещё живут вместе и ведут подкаст «Женщины-убийцы» — передачу о серийных убийцах. На работе ... 7.3 10 6
Info! Золотая раздача, скачанное не засчитывается.
Торрент: Зарегистрирован [2017-10-14 09:03] · скачан: 56 раз
Статус: T временная
Размер: 3.45 GB
Как cкачать? Как скачать Женщины-убийцы через торрент | qTorrent

% Раздел Тема Автор DL S | L
T Фильмы 2016 [DVDrip, WEB-DLRip, HDrip] (DUB, MVO) [ 1.42 GB ] Женщины-убийцы / Women Who Kill [2016 WEB-DLRip] [MVO] [Студия "Paradox" & Omskbird records] Flash77 Скачать
1 | 0

28-11-2019 20:33  

Отключить всю рекламу на сайте

16-10-2017 18:00 Женщины-убийцы Скачать торрент  

16-10-2017 18:08 Женщины-убийцы Скачать торрент  

Все сделал! Проверьте! bober100pb.wtf



16-10-2017 18:23 Женщины-убийцы Скачать торрент  

Топик был перенесен из форума Оформление раздач (Кино, Видео и ТВ) в форум Фильмы (WEB-DL 720p, 1080p)


bober100pb.wtf



    Дорогой пользователь! Огромная просьба, поблагодарите релизера, оцените раздачу и оставьте свои комментарий, если Вы скачали Женщины-убийцы через торрент бесплатно! Внесите свою лепту в развитие PiratBit!
    Комментировать посты могут только пользователи прошедшие не сложную регистрацию
    Показать сообщения:    

    Женщины-убийцы через торрент
    Скачать бесплатно Женщины-убийцы
    Женщины-убийцы скачать торрент
    Женщины-убийцы смотреть онлайн
    Cкачать фильм Женщины-убийцы бесплатно
    Женщины-убийцы скачать торрент в хорошем качестве
    Женщины-убийцы смотреть онлайн бесплатно в хорошем качестве


    Вы не можете начинать темы
    Вы не можете отвечать на сообщения
    Вы не можете редактировать свои сообщения
    Вы не можете удалять свои сообщения
    Вы не можете голосовать в опросах
    Вы не можете прикреплять файлы к сообщениям
    Вы можете скачивать файлы