2 сезон

iTunes

MVO

1

2 сезон

iTunes

iTunes

1 сезон

RePack

30

Ultimate

ВАЖНО

ИГРА 18+

pack

RePack

MK11
pack

Легкие деньги

RePack

jed

RePack

fifa19

RePack

RDR2

RePack

NEED FOR SPEED™ PAYBACK

4 сезон

9 сезон

Бесстыжие 9 сезон

Все сериалы

все сериалы на PB.wtf

RePack

FAR CRY 5

Anonymous, доброй ночи, мы не успеваем собрать деньги на оплату серверов за декабрь и январь, помогите нам пожалуйста в это трудное время. В качестве благодарности мы отключим Вам всю рекламу на сайте (укажите свой ник в строку Ваше имя)!

×
  
Magnet ссылка

Планета обезьян: Война / War for the Planet of the Apes (Мэтт Ривз / Matt Reeves) [2017, фантастика, боевик, триллер, HDRip-AVC] Dub [Лицензия] pb.wtf

Планета обезьян: Война через торрент pb.wtf

Размер: 2.97 GB | Добавлен: 3 года 3 мес. назад | Торрент скачан:1961 раз
Скачать  

14-10-2017 12:22 Планета обезьян: Война Скачать торрент  

Планета обезьян: Война
War for the Planet of the Apes

«Кульминация великого противостояния»


Страна: США, Канада, Новая Зеландия
Жанр: фантастика, боевик, триллер, драма, приключения

Год выпуска: 2017
Продолжительность: 02:20:10

Перевод: Профессиональный (полное дублирование) [Blu-ray EUR]
Субтитры: русские (форсированные, полные), украинские (форсированные, полные), английские (форсированные, полные, SDH, SDH цветные)
Оригинальная аудиодорожка: английский

Режиссер: Мэтт Ривз / Matt Reeves

В ролях: Энди Серкис, Вуди Харрельсон, Стив Зан, Карин Коновал, Амайя Миллер, Терри Нотари, Тай Олссон, Майкл Адамуэйт, Тоби Кеббелл, Гэбриел Чаварриа, Джуди Грир, Сара Каннинг

Описание:
Армию генетически модифицированных обезьян ожидает новый вызов: они вынуждены вступить в смертельную схватку с армией людей под руководством безжалостного полковника. После невообразимых потерь среди своих воинов вождь обезьян Цезарь начинает личную борьбу с темными инстинктами и собирается отомстить за весь свой вид. В конце концов он и полковник должны будут сойтись в эпической битве, которая решит, кто теперь будет править на Земле - люди или обезьяны.



Релиз:

Автор рипа: stalkerok | Моя группа

Сэмпл

Качество видео: HDRip-AVC [War for the Planet of the Apes (2017) BDRip 1080p - BLUEBIRD (HDChina)]
Формат видео: MKV
Видео кодек: AVC
Аудио кодек: AC3
Видео: 2133 Кбит/сек, 1152*480 (2,40:1), в 23,976 (24000/1001) кадра/сек, AVC
Аудио #1: русский, 448 Кбит/сек, 48 КГц, 5.1, AC3
Аудио #2: английский, 448 Кбит/сек, 48 КГц, 5.1, AC3
Навигация по главам: есть

Отдельно: magnet:?xt=urn:btih:A29DE7E67584E799C6DD213625F7B8A62B3A190F
Скопировать магнит ссылку и вставить в торрент клиент. Включить DHT.
Аудио: русский, 448 Кбит/сек, 48 КГц, 5.1, AC3 Dub Blu-ray EUR + VO BadBajo К дубляжу добавлена озвучка обезьян BadBajo. Монтаж Ash61.
Аудио: русский, 384 Кбит/сек, 48 КГц, 5.1, AC3 VO BadBajo Речь обезьян переведена полностью.
Аудио: русский, 448 Кбит/сек, 48 КГц, 5.1, AC3 Dub Blu-ray EUR
Аудио: украинский, 126 Кбит/сек, 44,1 КГц, 2 канала, AAC (LC) Dub iTunes
Аудио: английский, 448 Кбит/сек, 48 КГц, 5.1, AC3
Субтитры: русские (форсированные: для чистого дубляжа, для дубляжа с BadBajo; полные), украинские (форсированные, полные), английские (форсированные, полные, SDH, SDH цветные)

x264 [info]: frame I:1474 Avg QP:14.80 size: 79810
x264 [info]: frame P:43608 Avg QP:16.87 size: 24394
x264 [info]: frame B:156539 Avg QP:18.95 size: 6775

Общее
Уникальный идентификатор : 191006254557449789724356317510001614524 (0x8FB2776DF812D9DF8B5F7AB365D5DEBC)
Полное имя : M:\!Rips2017\War for the Planet of the Apes\lic\War.for.the.Planet.of.the.Apes.2017.HDRip-AVC.RUS.ENG.stalkerok.new-team.mkv
Формат : Matroska
Версия формата : Version 4 / Version 2
Размер файла : 2,97 Гбайт
Продолжительность : 2 ч. 20 м.
Общий поток : 3031 Кбит/сек
Название фильма : War for the Planet of the Apes (2017) (Rip by stalkerok)
Дата кодирования : UTC 2017-10-18 13:55:32
Программа кодирования : mkvmerge v8.6.1 ('Flying') 64bit
Библиотека кодирования : libebml v1.3.3 + libmatroska v1.4.4

Видео
Идентификатор : 1
Формат : AVC
Формат/Информация : Advanced Video Codec
Профиль формата : High@L4.1
Параметр CABAC формата : Да
Параметр ReFrames формата : 13 кадров
Идентификатор кодека : V_MPEG4/ISO/AVC
Продолжительность : 2 ч. 20 м.
Битрейт : 2133 Кбит/сек
Ширина : 1152 пикселя
Высота : 480 пикселей
Соотношение сторон : 2,40:1
Режим частоты кадров : Постоянный
Частота кадров : 23,976 (24000/1001) кадра/сек
Цветовое пространство : YUV
Субдискретизация насыщенности : 4:2:0
Битовая глубина : 8 бит
Тип развёртки : Прогрессивная
Бит/(Пиксели*Кадры) : 0.161
Размер потока : 2,09 Гбайт (70%)
Заголовок : War for the Planet of the Apes (2017) (Rip by stalkerok)
Библиотека кодирования : x264 core 150 r2833kMod df79067
Настройки программы : cabac=1 / ref=13 / deblock=1:-3:-2 / analyse=0x3:0x133 / me=umh / subme=11 / psy=1 / fade_compensate=0.00 / psy_rd=1.00:0.00 / mixed_ref=1 / me_range=32 / chroma_me=1 / trellis=2 / 8x8dct=1 / cqm=0 / deadzone=21,11 / fast_pskip=0 / chroma_qp_offset=-2 / threads=12 / lookahead_threads=3 / sliced_threads=0 / nr=0 / decimate=1 / interlaced=0 / bluray_compat=0 / constrained_intra=0 / bframes=13 / b_pyramid=2 / b_adapt=2 / b_bias=0 / direct=3 / weightb=1 / open_gop=0 / weightp=2 / keyint=240 / keyint_min=23 / scenecut=40 / intra_refresh=0 / rc_lookahead=60 / rc=crf / mbtree=0 / crf=17.4000 / qcomp=0.65 / qpmin=0 / qpmax=69 / qpstep=4 / vbv_maxrate=50000 / vbv_bufsize=62500 / crf_max=0.0 / nal_hrd=none / filler=0 / ip_ratio=1.40 / pb_ratio=1.30 / aq=3:0.80 / zones=190883,201620,q=33
Default : Да
Forced : Нет

Аудио #1
Идентификатор : 2
Формат : AC-3
Формат/Информация : Audio Coding 3
Расширение режима : CM (complete main)
Параметр Endianness формата : Big
Идентификатор кодека : A_AC3
Продолжительность : 2 ч. 20 м.
Вид битрейта : Постоянный
Битрейт : 448 Кбит/сек
Каналы : 6 каналов
Расположение каналов : Front: L C R, Side: L R, LFE
Частота : 48,0 КГц
Частота кадров : 31,250 кадров/сек (1536 spf)
Метод сжатия : С потерями
Размер потока : 449 Мбайт (15%)
Язык : Russian
Default : Да
Forced : Нет

Аудио #2
Идентификатор : 3
Формат : AC-3
Формат/Информация : Audio Coding 3
Расширение режима : CM (complete main)
Параметр Endianness формата : Big
Идентификатор кодека : A_AC3
Продолжительность : 2 ч. 20 м.
Вид битрейта : Постоянный
Битрейт : 448 Кбит/сек
Каналы : 6 каналов
Расположение каналов : Front: L C R, Side: L R, LFE
Частота : 48,0 КГц
Частота кадров : 31,250 кадров/сек (1536 spf)
Метод сжатия : С потерями
Размер потока : 449 Мбайт (15%)
Язык : English
Default : Нет
Forced : Нет

Текст #1
Идентификатор : 4
Формат : UTF-8
Идентификатор кодека : S_TEXT/UTF8
Идентификатор кодека/Информация : UTF-8 Plain Text
Продолжительность : 2 ч. 18 м.
Битрейт : 8 бит/сек
Count of elements : 225
Размер потока : 9,15 Кбайт (0%)
Заголовок : Forced
Язык : Russian
Default : Да
Forced : Нет

Текст #2
Идентификатор : 5
Формат : UTF-8
Идентификатор кодека : S_TEXT/UTF8
Идентификатор кодека/Информация : UTF-8 Plain Text
Продолжительность : 2 ч. 18 м.
Битрейт : 28 бит/сек
Count of elements : 797
Размер потока : 28,6 Кбайт (0%)
Заголовок : Full-length
Язык : Russian
Default : Нет
Forced : Нет

Текст #3
Идентификатор : 6
Формат : UTF-8
Идентификатор кодека : S_TEXT/UTF8
Идентификатор кодека/Информация : UTF-8 Plain Text
Продолжительность : 2 ч. 17 м.
Битрейт : 6 бит/сек
Count of elements : 202
Размер потока : 7,00 Кбайт (0%)
Заголовок : Forced
Язык : Ukrainian
Default : Нет
Forced : Нет

Текст #4
Идентификатор : 7
Формат : UTF-8
Идентификатор кодека : S_TEXT/UTF8
Идентификатор кодека/Информация : UTF-8 Plain Text
Продолжительность : 2 ч. 18 м.
Битрейт : 28 бит/сек
Count of elements : 782
Размер потока : 28,6 Кбайт (0%)
Заголовок : Full-length
Язык : Ukrainian
Default : Нет
Forced : Нет

Текст #5
Идентификатор : 8
Формат : UTF-8
Идентификатор кодека : S_TEXT/UTF8
Идентификатор кодека/Информация : UTF-8 Plain Text
Продолжительность : 1 ч. 42 м.
Битрейт : 5 бит/сек
Count of elements : 192
Размер потока : 4,22 Кбайт (0%)
Заголовок : Forced
Язык : English
Default : Нет
Forced : Нет

Текст #6
Идентификатор : 9
Формат : UTF-8
Идентификатор кодека : S_TEXT/UTF8
Идентификатор кодека/Информация : UTF-8 Plain Text
Продолжительность : 2 ч. 8 м.
Битрейт : 16 бит/сек
Count of elements : 750
Размер потока : 15,5 Кбайт (0%)
Заголовок : Full-length
Язык : English
Default : Нет
Forced : Нет

Текст #7
Идентификатор : 10
Формат : UTF-8
Идентификатор кодека : S_TEXT/UTF8
Идентификатор кодека/Информация : UTF-8 Plain Text
Продолжительность : 2 ч. 8 м.
Битрейт : 16 бит/сек
Count of elements : 761
Размер потока : 15,6 Кбайт (0%)
Заголовок : Full (Blu-ray)
Язык : English
Default : Нет
Forced : Нет

Текст #8
Идентификатор : 11
Формат : UTF-8
Идентификатор кодека : S_TEXT/UTF8
Идентификатор кодека/Информация : UTF-8 Plain Text
Продолжительность : 2 ч. 9 м.
Битрейт : 20 бит/сек
Count of elements : 1011
Размер потока : 19,8 Кбайт (0%)
Заголовок : SDH
Язык : English
Default : Нет
Forced : Нет

Текст #9
Идентификатор : 12
Формат : UTF-8
Идентификатор кодека : S_TEXT/UTF8
Идентификатор кодека/Информация : UTF-8 Plain Text
Продолжительность : 2 ч. 9 м.
Битрейт : 49 бит/сек
Count of elements : 1011
Размер потока : 47,0 Кбайт (0%)
Заголовок : SDH Colored
Язык : English
Default : Нет
Forced : Нет

Меню
00:00:00.000 : en:00:00:00.000
00:05:05.889 : en:00:05:05.889
00:09:06.713 : en:00:09:06.713
00:12:14.108 : en:00:12:14.108
00:18:21.017 : en:00:18:21.017
00:25:04.503 : en:00:25:04.503
00:30:17.399 : en:00:30:17.399
00:34:13.093 : en:00:34:13.093
00:37:46.347 : en:00:37:46.347
00:42:54.447 : en:00:42:54.447
00:49:31.802 : en:00:49:31.802
00:54:14.626 : en:00:54:14.626
00:58:49.818 : en:00:58:49.818
01:05:24.129 : en:01:05:24.129
01:10:18.381 : en:01:10:18.381
01:14:53.823 : en:01:14:53.823
01:18:59.193 : en:01:18:59.193
01:25:35.672 : en:01:25:35.672
01:29:37.372 : en:01:29:37.372
01:34:22.824 : en:01:34:22.824
01:39:27.712 : en:01:39:27.712
01:43:48.222 : en:01:43:48.222
01:48:45.394 : en:01:48:45.394
01:55:20.580 : en:01:55:20.580
01:58:04.703 : en:01:58:04.703
02:02:33.930 : en:02:02:33.930
02:05:54.797 : en:02:05:54.797
02:12:51.213 : en:02:12:51.213
скриншот   скриншот   скриншот   скриншот   скриншот   скриншот   скриншот   скриншот  
pb.wtf



Скачать Планета обезьян: Война через торрент http://i6.imageban.ru/out/2017/09/18/2ff75c0c358795c5946784cc1680714d.png Скачать фильм Планета обезьян: Война через торрент бесплантно в хорошем качестве Описание:Армию генетически модифицированных обезьян ожидает новый вызов: они вынуждены вступить в смертельную схватку с армией людей под ... 9.2 10 48
Info! Золотая раздача, скачанное не засчитывается.
Торрент: Зарегистрирован [2017-10-18 14:05] · скачан: 1 961 раз
Статус: √ проверено
Размер: 2.97 GB
Как cкачать? Как скачать Планета обезьян: Война через торрент | UTorrent

% Раздел Тема Автор DL S | L
Ultra HD (UHD: 2K, 4K, 8K) — видео сверхвысокой чёткости [ 50.8 GB ] Планета обезьян: Война / War for the Planet of the Apes [2017 UHD Blu-ray 2160p] DUB [] sheker187 Скачать
1 | 0
Ultra HD (UHD: 2K, 4K, 8K) — видео сверхвысокой чёткости [ 60.13 GB ] Планета обезьян: Война / War for the Planet of the Apes [2017 UHD BDRemux 2160p] DUB + 3xAVO sheker187 Скачать
1 | 0
Ultra HD (UHD: 2K, 4K, 8K) — видео сверхвысокой чёткости [ 43.6 GB ] Планета обезьян: Война / War for the Planet of the Apes [2017 UHD BDRemux 2160p] [] DUB+AVO [Д.Есарев] bober100 Скачать
1 | 0
Фильмы (Blu-ray, BD-Remux, HDDVD) [ 45.87 GB ] Планета обезьян: Война / War for the Planet of the Apes [2017 BDRemux 1080p] DUB + 3xAVO sheker187 Скачать
1 | 0
Фильмы 2017 [DVDrip, WEB-DLRip, HDrip] (DUB, MVO) [ 2.18 GB ] Планета обезьян: Война / War for the Planet of the Apes [2017 BDRip] - [] Twi7ter Скачать
1 | 0
Фильмы с авторской озвучкой [ 1.45 GB ] Планета обезьян: Война / War for the Planet of the Apes [2017 HDRip-AVC] [AVO] killermax2013 Скачать
1 | 0
Фильмы (HD 720p, 1080p) (48-60 fps) [ 23.64 GB ] Планета обезьян: Война / War for the Planet of the Apes [2017 BDRip 1080p 60fps Dub VO Original] Tiberiumsun69 Скачать
1 | 0


Последний раз редактировалось: sokol_ok (2017-10-18 14:04), всего редактировалось 1 раз

28-11-2019 20:33  

Отключить всю рекламу на сайте

14-10-2017 18:43 Планета обезьян: Война Скачать торрент  

много печали,а так фильм классpb.wtf



15-10-2017 19:55 Планета обезьян: Война Скачать торрент  

Достойное продолжение!pb.wtf



16-10-2017 15:16 Планета обезьян: Война Скачать торрент  

Фильм не понравился.Фантастику люблю.Книгу читал лет 40 назад.Первый фильм серии понравился.Хотелось бы чтобы сценарист и режиссер больше внимания уделяли логике.Но уже что вышло,то вышло.Для меня скучно и глупо.pb.wtf



16-10-2017 16:13 Планета обезьян: Война Скачать торрент  

Экскюзи муа , но это говно!pb.wtf



17-10-2017 00:49 Планета обезьян: Война Скачать торрент  

не очень,еле досмотрел,растянули слишком,можно час из фильма вырезать и никто не заметитpb.wtf



18-10-2017 14:05 Планета обезьян: Война Скачать торрент  

Замена на звук с Blu-ray EUR.pb.wtf



20-10-2017 17:49 Планета обезьян: Война Скачать торрент  

Закончилось кино, расслабтесьpb.wtf



23-10-2017 15:38 Планета обезьян: Война Скачать торрент  

В мире животных,мать их.pb.wtf



24-10-2017 20:37 Планета обезьян: Война Скачать торрент  

Норм фильмец, если в качестве смотреть..60фпсpb.wtf



25-10-2017 14:52 Планета обезьян: Война Скачать торрент  

у-у-у-у,а-а-а-а,ы-ы-ы-ы.Хватило минут на двадцать Такие прям умные твари.Просто бред...pb.wtf



08-11-2017 17:07 Планета обезьян: Война Скачать торрент  

хороший фильмpb.wtf



09-11-2017 09:29 Планета обезьян: Война Скачать торрент  

Очередной провал pb.wtf



    Дорогой пользователь! Огромная просьба, поблагодарите релизера, оцените раздачу и оставьте свои комментарий, если Вы скачали Планета обезьян: Война через торрент бесплатно! Внесите свою лепту в развитие PiratBit!
    Комментировать посты могут только пользователи прошедшие не сложную регистрацию
    Показать сообщения:    

    Планета обезьян: Война через торрент
    Скачать бесплатно Планета обезьян: Война
    Планета обезьян: Война скачать торрент
    Планета обезьян: Война смотреть онлайн
    Cкачать фильм Планета обезьян: Война бесплатно
    Планета обезьян: Война скачать торрент в хорошем качестве
    Планета обезьян: Война смотреть онлайн бесплатно в хорошем качестве


    Вы не можете начинать темы
    Вы не можете отвечать на сообщения
    Вы не можете редактировать свои сообщения
    Вы не можете удалять свои сообщения
    Вы не можете голосовать в опросах
    Вы не можете прикреплять файлы к сообщениям
    Вы можете скачивать файлы